ПЕРЕГОН (Александр Рогожкин) [2006 г., драма, комедия, криминал, военный, история, ..., DVDRip]

Ответить на тему
 

Habibullo ®

Стаж: 5 лет 7 месяцев

Сообщений: 72

Симпатии: 16

ПЕРЕГОН- -Год выпуска: 2006
Жанр: драма, комедия, криминал, военный, история, ...
Продолжительность: 02:21:02-Режиссер: Александр Рогожкин-В ролях: Даниил Страхов, Алексей Серебряков, Анастасия Немоляева, Светлана Строганова, Юрий Ицков, Юрий Орлов, Кирилл Ульянов, Дмитрий Лысенков, Захар Ронжин, Андрей Фомин...-Описание: Это история русских, американцев, аборигенов Крайнего Севера, история мужчины и женщины на войне. Любовь русского офицера и американской летчицы Мэри Маклейн сталкивается с языковыми и культурными барьерами, из-за чего возникает множество курьезных и нелепых, а иногда и трагических ситуаций.
А рядом с полярным аэродромом существует другой мир — мир местных эскимосов, живущих далекой от войны жизнью. Правда солдат непонятна эскимосу, ведь: «Человек стреляет в зверя, чтобы съесть его или получить шкуру, из которой можно сделать одежду или лодку. Тогда зачем он стреляет в другого человека, если не собирается его есть?».-Доп. информация: Поскольку на современном слэнге выражение «не догнать» может быть интерпретировано как «не понять», то в отношении данной работы Александра Рогожкина как раз следует сказать о её недопонимании многими, кто ждал от автора «Особенностей национальной охоты» или «Кукушки» примерно такого же кино. Кроме того, в «Перегоне», рассказывающем о наших и американских лётчиках, которые в годы войны перегоняли самолёты через Берингов пролив, удивляет странный детективный поворот ближе к концу, и какой-то вовне открытый финал, относящийся уже не к 1943-му, а к 1953 году, чьё холодное лето имеет собственные ассоциации, включая и кинематографические. Но всё дело в том, что Рогожкин середины 2000-х (и в минисериале «Своя чужая жизнь», и в фильме «Перегон») явно тяготеет к романной форме изложения материала, пусть не всегда может с нею совладать достаточно убедительно на протяжении повествования, а ещё интересуется тем, как разворачиваются судьбы обычных людей на фоне событий большой Истории.
И в то же время режиссёр не в состоянии отказать себе и своим постоянным зрителям в прежних комических дивертисментах (причём лучшим в «Перегоне» является, конечно, сюжет с поросёнком Тарасиком, который был вынужденно подарен американцам и успел вырасти на Аляске в большого борова). Александра Рогожкина теперь привлекает течение самой жизни, а не только её парадоксальные, зачастую смешные и экстравагантные повороты и казусы. Однако формат киноленты сопротивляется этому, и продолжительный хронометраж (2 часа 20 минут) не идёт на пользу действию, всё-таки неторопливому по ритму. Вероятно, на телеэкране это смотрелось бы гораздо лучше — например, в четырёхсерийном (4х45) варианте.-Качество: DVDRip
Формат: AVI
Видео кодек: XviD
Аудио кодек: MP3-Видео: XviD, 640X272, MPEG 4 codec, 25 000 fps, ~ 1022 Kbps.
Аудио: MP3, 48.000 kHz, ~192.00 kbps, 2 channels-

Media info

General
Format : AVI
Format/Info : Audio Video Interleave
File size : 613 MiB
Duration : 1h 10mn
Overall bit rate : 1 223 Kbps
Writing library : VirtualDub build 15654/release
Video #0
ID : 0
Format : MPEG-4 Visual
Format profile : Advanced [email protected]
Format settings, BVOP : 2
Format settings, QPel : No
Format settings, GMC : No warppoints
Format settings, Matrix : Default (MPEG)
Muxing mode : Packed bitstream
Codec ID : XVID
Codec ID/Hint : XviD
Duration : 1h 10mn
Bit rate : 1 022 Kbps
Width : 640 pixels
Height : 272 pixels
Display aspect ratio : 2.35:1
Frame rate : 25.000 fps
Color space : YUV
Chroma subsampling : 4:2:0
Bit depth : 8 bits
Scan type : Progressive
Compression mode : Lossy
Bits/(Pixel*Frame) : 0.235
Stream size : 512 MiB (84%)
Writing library : XviD 1.1.0 Beta2 (UTC 2005-04-04)
Audio #1
ID : 1
Format : MPEG Audio
Format version : Version 1
Format profile : Layer 3
Mode : Joint stereo
Codec ID : 55
Codec ID/Hint : MP3
Duration : 1h 10mn
Bit rate mode : Constant
Bit rate : 192 Kbps
Channel(s) : 2 channels
Sampling rate : 48.0 KHz
Compression mode : Lossy
Stream size : 96.2 MiB (16%)
Alignment : Split accross interleaves
Interleave, duration : 40 ms (1.00 video frame)
Interleave, preload duration : 500 ms

Скриншоты

Создавать темы 02-Июн-2013 11:01

[Профиль]  [ЛС] 
Показать сообщения:    
Ответить на тему

Текущее время: 20-Авг 07:18

Часовой пояс: UTC + 5



Вы не можете начинать темы
Вы не можете отвечать на сообщения
Вы не можете редактировать свои сообщения
Вы не можете удалять свои сообщения
Вы не можете голосовать в опросах
Вы не можете прикреплять файлы к сообщениям
Вы не можете скачивать файлы