Лифт (Всеволод Плоткин) [2006 г., триллер, детектив, DVDRip]

Ответить на тему
 

Habibullo ®

Стаж: 5 лет 11 месяцев

Сообщений: 72

Симпатии: 16

Лифт- -Год выпуска: 2006
Жанр: триллер, детектив
Продолжительность: 01:28:01-Режиссер: Всеволод Плоткин-слоган «Страх обнажает истину...»-сценарий: Роман Доронин
оператор: Радик Аскаров
композитор: Дмитрий Илугдин-В ролях: Игорь Верник, Ольга Родионова, Даниил Спиваковский, Сергей Горобченко, Георгий Мартиросьян, Наталья Рычкова, Алевтина Добрынина, Олег Марусев, Екатерина Зинченко, Мария Костикова-Описание: Однажды обычным летним утром из квартир, расположенных на разных этажах, вышли пятеро незнакомых людей и вошли в лифт. Двери захлопнулись за последним пассажиром и лифт начал свое движение вниз. Но проходит минута, другая, а лифт не останавливается, возникает ощущение бесконечного движения.
С каждой минутой паника перерастает в страх, ситуация выходит из под контроля. Кабина лифта превращается в замкнутое пространство, в движущуюся стрессовую ситуацию из которой невозможно выбраться. Как поведут себя пятеро людей в таком безвыходном положении? В их души закрадывается сомнение и ужас, они охвачены чувством неизбежности и отчаяния, ведь повседневное становится нереальным.-Качество: DVDRip
Формат: AVI
Видео кодек: XviD
Аудио кодек: MP3-Видео: XviD, 640X336, MPEG 4 codec, 25 000 fps, ~ 1107 Kbps.
Аудио: MP3, 48.000 kHz, ~128.00 kbps, 2 channels

Media info

General
Format : AVI
Format/Info : Audio Video Interleave
File size : 697 MiB
Duration : 1h 28mn
Overall bit rate : 1 107 Kbps
Writing application : VirtualDubMod 1.5.10.2 (build 2540/release)
Writing library : VirtualDubMod build 2540/release
Video #0
ID : 0
Format : MPEG-4 Visual
Format profile : Advanced [email protected]
Format settings, BVOP : 2
Format settings, QPel : No
Format settings, GMC : No warppoints
Format settings, Matrix : Default (H.263)
Muxing mode : Packed bitstream
Codec ID : XVID
Codec ID/Hint : XviD
Duration : 1h 28mn
Bit rate : 969 Kbps
Width : 640 pixels
Height : 336 pixels
Display aspect ratio : 1.905
Frame rate : 25.000 fps
Color space : YUV
Chroma subsampling : 4:2:0
Bit depth : 8 bits
Scan type : Progressive
Compression mode : Lossy
Bits/(Pixel*Frame) : 0.180
Stream size : 610 MiB (88%)
Writing library : XviD 1.0.3 (UTC 2004-12-20)
Audio #1
ID : 1
Format : MPEG Audio
Format version : Version 1
Format profile : Layer 3
Mode : Joint stereo
Mode extension : MS Stereo
Codec ID : 55
Codec ID/Hint : MP3
Duration : 1h 28mn
Bit rate mode : Constant
Bit rate : 128 Kbps
Channel(s) : 2 channels
Sampling rate : 48.0 KHz
Compression mode : Lossy
Stream size : 80.6 MiB (12%)
Alignment : Aligned on interleaves
Interleave, duration : 40 ms (1.00 video frame)
Interleave, preload duration : 504 ms

Скриншоты



Последний раз редактировалось: Habibullo (2013-12-02 15:05), всего редактировалось 2 раз(а)

Создавать темы 02-Июн-2013 13:01

[Профиль]  [ЛС] 

samsunger

Стаж: 5 лет 6 месяцев

Сообщений: 332

Симпатии: 19

Прочитал дополнительную информацию про фильм, что - то расхотелось его скачивать :(

Создавать темы 02-Июн-2013 13:44

[Профиль]  [ЛС] 

Habibullo ®

Стаж: 5 лет 11 месяцев

Сообщений: 72

Симпатии: 16

Нормальное качество!!! не HD конечно но просмотр рекомендую

Создавать темы 02-Июн-2013 13:46

[Профиль]  [ЛС] 

Тямик

Стаж: 5 лет 2 месяца

Сообщений: 31

Симпатии: 8

Автор доп информацию наверное сам не читал))) Так скопипастил просто)))

Создавать темы 02-Июн-2013 13:54

[Профиль]  [ЛС] 

Habibullo ®

Стаж: 5 лет 11 месяцев

Сообщений: 72

Симпатии: 16

Нет я читал критику ну если хотите уберу ну фильм класный просто критика должна быть

Создавать темы 02-Июн-2013 17:40

[Профиль]  [ЛС] 

XAHC

Стаж: 4 года 7 месяцев

Сообщений: 8

Ты скорости дай лучше!

Создавать темы 04-Июн-2013 14:32

[Профиль]  [ЛС] 

Habibullo ®

Стаж: 5 лет 11 месяцев

Сообщений: 72

Симпатии: 16

как могу даю

Создавать темы 05-Июн-2013 18:30

[Профиль]  [ЛС] 
Показать сообщения:    
Ответить на тему

Текущее время: 16-Дек 18:08

Часовой пояс: UTC + 5



Вы не можете начинать темы
Вы не можете отвечать на сообщения
Вы не можете редактировать свои сообщения
Вы не можете удалять свои сообщения
Вы не можете голосовать в опросах
Вы не можете прикреплять файлы к сообщениям
Вы не можете скачивать файлы