Аминь / Nude Nuns with Big Guns (Джозеф Гузман) [2010 г., Триллер, DVDRip]

Ответить на тему
 

Nosferatu ®

Стаж: 4 года 9 месяцев

Сообщений: 79

Симпатии: 5

Аминь / Nude Nuns with Big Guns- -
Год выпуска: 2010
Страна: США
Жанр: Триллер
Продолжительность: 01:28:03
Перевод: Профессиональный (многоголосый, закадровый)
Режиссер: Джозеф Гузман-В ролях:
Асун Ортега, Ксандро Хенри, Тони Эмбер Янг, Даванни Пинн, Саша Стабер, Ивет Корвеа, Бил Оберст – мл., Томас Бойкин, Ларри Эуден, Кимберли Эблес Джиндра, Моника Рамон, Джессика Элдер-Описание:
Укрываясь за монастырской стеной от опасностей внешнего мира, сестра Сара не ожидала, что попадет прямо в лапы преступников в рясах: под прикрытием священного креста действовал законспирированный наркокартель. Контролируемые настоятелям «тихой обители» послушницы расфасовывали кокаин, а церковный автобус развозил товар по крупным дилерам. Однажды во время доставки товара в автобусе обнаружилась недостача… Подозреваемых в воровстве было лишь трое: двоих монашек бандиты застрелили на месте, а Сару наркобарон забрал с собой. Недолго думая, он накачал ее наркотиками и сдал в бордель. Едва не умерев от передозировки, избитая и изнасилованная Сара очнулась в какой-то лачуге и услышала глас божий, призывавший ее отомстить обидчикам… Исполняя Божью волю, сестра Сара собрала целый арсенал оружия и объявила войну своим мучителям, истребляя их одного за другим. Церковная наркомафия и связанная с ней банда «Los Muertos» поклялись оторвать голову непокорной монахине. Но с именем Господа на устах и с крупнокалиберным пистолетам в руке она сама устроит им внеочередной Судный день!-Доп. информация:
Рейтинг
IMDB:3.8 из 10 (3,497 голосов)
КП:3.7 из 10 (623 голоса)-Качество: HDRip
Формат: AVI
Видео кодек: XviD
Аудио кодек: AC3
Видео: Xvid 720x400 25fps 2 223 Kbps [Stream 00]
Audio #1: Dolby AC3 48000Hz stereo 192kbps Russian [Stream 01]
Audio #2: Dolby AC3 48000Hz stereo 192kbps English [Stream 02]

Media Info

Format : AVI
Format/Info : Audio Video Interleave
File size : 1.37 GiB
Duration : 1h 28mn
Overall bit rate : 2 223 Kbps
Writing application : VirtualDubMod 1.5.4.1 (build 2178/release)
Writing library : VirtualDubMod build 2178/release
Video
ID : 0
Format : MPEG-4 Visual
Format profile : Advanced [email protected]
Format settings, BVOP : 2
Format settings, QPel : No
Format settings, GMC : No warppoints
Format settings, Matrix : Custom
Codec ID : XVID
Codec ID/Hint : XviD
Duration : 1h 28mn
Bit rate : 1 824 Kbps
Width : 720 pixels
Height : 400 pixels
Display aspect ratio : 16:9
Frame rate : 25.000 fps
Color space : YUV
Chroma subsampling : 4:2:0
Bit depth : 8 bits
Scan type : Progressive
Compression mode : Lossy
Bits/(Pixel*Frame) : 0.253
Stream size : 1.12 GiB (82%)
Writing library : XviD 58
Audio #1
ID : 1
Format : AC-3
Format/Info : Audio Coding 3
Mode extension : CM (complete main)
Format settings, Endianness : Big
Codec ID : 2000
Duration : 1h 28mn
Bit rate mode : Constant
Bit rate : 192 Kbps
Channel(s) : 2 channels
Channel positions : Front: L R
Sampling rate : 48.0 KHz
Bit depth : 16 bits
Compression mode : Lossy
Stream size : 121 MiB (9%)
Alignment : Split accross interleaves
Interleave, duration : 40 ms (1.00 video frame)
Interleave, preload duration : 500 ms
Audio #2
ID : 2
Format : AC-3
Format/Info : Audio Coding 3
Mode extension : CM (complete main)
Format settings, Endianness : Big
Codec ID : 2000
Duration : 1h 28mn
Bit rate mode : Constant
Bit rate : 192 Kbps
Channel(s) : 2 channels
Channel positions : Front: L R
Sampling rate : 48.0 KHz
Bit depth : 16 bits
Compression mode : Lossy
Stream size : 121 MiB (9%)
Alignment : Split accross interleaves
Interleave, duration : 40 ms (1.00 video frame)
Interleave, preload duration : 500 ms

Скриншоты













Последний раз редактировалось: Nosferatu (2013-06-09 18:34), всего редактировалось 3 раз(а)

Создавать темы 02-Июн-2013 13:24

[Профиль]  [ЛС] 

nazar51020

Стаж: 4 года 10 месяцев

Сообщений: 24

Nude Nuns with Big Guns
LOL
переведи и вставь в название, тогда личеры так и попрут)

Создавать темы 02-Июн-2013 13:34

[Профиль]  [ЛС] 

Nosferatu ®

Стаж: 4 года 9 месяцев

Сообщений: 79

Симпатии: 5

nazar51020, http://cinemate.cc/movie/66483/comments/ an

Создавать темы 02-Июн-2013 13:35

[Профиль]  [ЛС] 

resbo

Стаж: 7 лет 1 месяц

Сообщений: 6

Nude Nuns with Big Guns
LOL
переведи и вставь в название, тогда личеры так и попрут)
Тогда есть риск, что фильм забанят. А в целом верно подмечено)))

Создавать темы 04-Июн-2013 11:58

[Профиль]  [ЛС] 

jaska-3d

Стаж: 6 лет

Сообщений: 250

Симпатии: 25

Не покидайте раздачу, дайте скачать, PLEASE !!!!

Создавать темы 24-Июл-2013 18:38

[Профиль]  [ЛС] 

abusaid

Стаж: 4 года 5 месяцев

Сообщений: 32

Симпатии: 3

Аминь / Nude Nuns with Big Guns (Джозеф Гузман) [2010 г., Триллер, DVDRip]
Беспонтовый фильм и, к тому же, с сценами насилия. Закрыть однозначно.

Создавать темы 29-Июл-2013 08:21

[Профиль]  [ЛС] 
Показать сообщения:    
Ответить на тему

Текущее время: 15-Дек 15:17

Часовой пояс: UTC + 5



Вы не можете начинать темы
Вы не можете отвечать на сообщения
Вы не можете редактировать свои сообщения
Вы не можете удалять свои сообщения
Вы не можете голосовать в опросах
Вы не можете прикреплять файлы к сообщениям
Вы не можете скачивать файлы