Гарри Поттер и дары смерти: Часть I. 3D / Harry Potter and the Deathly Hallows: Part 1. 3D (Дэвид Йэтс) [2010 г., фэнтези, детектив, приключения, семейный, BDRip]

Ответить на тему
 

nizom_19 ®

Стаж: 4 года 4 месяца

Сообщений: 60

Симпатии: 17

Гарри Поттер и дары смерти: Часть I. 3D / Harry Potter and the Deathly Hallows: Part 1. 3D
Год выпуска: 2010
Страна: Великобритания, США
Жанр: фэнтези, детектив, приключения, семейный
Продолжительность: 02:26:03
Перевод: Профессиональный (полное дублирование)
Режиссер: Дэвид Йэтс
В ролях: Дэниэл Рэдклифф, Руперт Гринт, Эмма Уотсон, Том Фелтон, Бонни Райт, Алан Рикман, Рэйф Файнс, Хелена Бонем Картер, Майкл Гэмбон, Брендан Глисон
Описание: Гарри Поттера ждёт самое страшное испытание в жизни — смертельная схватка с Волан-де-Мортом. Ждать помощи не от кого — Гарри одинок, как никогда… Друзья и враги Гарри предстают в совершенно неожиданном свете. Граница между Добром и Злом становится всё призрачнее…
Качество: BDRip
Формат: TS
Формат 3D: Half SideBySide / Горизонтальная анаморфная стереопара
Видео кодек: MPEG2
Аудио кодек: Dolby AC3
Видео: 1920x1080, 29.97fps, 104857kbps
Аудио: 44100Hz, stereo, 320kbps

media info

C:\3d\HARRY POTTER AND THE DEATHLY HALLOWS.ts
   General #1
      ID : 1 (0x1)
      Complete name : C:\3d\HARRY POTTER AND THE DEATHLY HALLOWS.ts
      Format : MPEG-TS
      File size : 13.0 GiB
      Duration : 2h 17mn
      Overall bit rate mode : Constant
      Overall bit rate : 13.5 Mbps
   Video #256
      ID : 256 (0x100)
      Menu ID : 1 (0x1)
      Format : MPEG Video
      Format version : Version 2
      Format profile : [email protected]
      Format settings, BVOP : No
      Format settings, Matrix : Default
      Format settings, GOP : N=12
      Codec ID : 2
      Duration : 2h 26mn
      Bit rate mode : Variable
      Bit rate : 12.5 Mbps
      Width : 1 920 pixels
      Height : 1 080 pixels
      Display aspect ratio : 16:9
      Frame rate : 29.970 fps
      Color space : YUV
      Chroma subsampling : 4:2:0
      Bit depth : 8 bits
      Scan type : Progressive
      Compression mode : Lossy
      Bits/(Pixel*Frame) : 0.202
      Stream size : 12.8 GiB (98%)
   Audio #257
      ID : 257 (0x101)
      Menu ID : 1 (0x1)
      Format : AC-3
      Format/Info : Audio Coding 3
      Mode extension : CM (complete main)
      Format settings, Endianness : Big
      Codec ID : 129
      Duration : 2h 26mn
      Bit rate mode : Constant
      Bit rate : 320 Kbps
      Channel(s) : 2 channels
      Channel positions : Front: L R
      Sampling rate : 44.1 KHz
      Bit depth : 16 bits
      Compression mode : Lossy
      Stream size : 334 MiB (3%)
      Language : Russian

Скриншоты









Последний раз редактировалось: nizom_19 (2013-06-10 06:48), всего редактировалось 10 раз(а)

Создавать темы 04-Июн-2013 11:00

[Профиль]  [ЛС] 

nizom_19 ®

Стаж: 4 года 4 месяца

Сообщений: 60

Симпатии: 17

проверьте

Создавать темы 05-Июн-2013 16:32

[Профиль]  [ЛС] 

NerZul

Стаж: 4 года 1 месяц

Сообщений: 10

Симпатии: 5

Автор, вторую часть выложишь?

Создавать темы 15-Дек-2014 19:53

[Профиль]  [ЛС] 

nizom_19 ®

Стаж: 4 года 4 месяца

Сообщений: 60

Симпатии: 17

посмотрим, постараюсь

Создавать темы 15-Дек-2014 22:36

[Профиль]  [ЛС] 

NerZul

Стаж: 4 года 1 месяц

Сообщений: 10

Симпатии: 5

Ок, тогда скачаю =) Спасибо

Создавать темы 16-Дек-2014 10:01

[Профиль]  [ЛС] 

nizom_19 ®

Стаж: 4 года 4 месяца

Сообщений: 60

Симпатии: 17

раздача с 21.12.2014 будет ))

Создавать темы 19-Дек-2014 00:30

[Профиль]  [ЛС] 

Umidbek84

Стаж: 6 лет 7 месяцев

Сообщений: 20

Симпатии: 1

Нет раздачи . Дайте хотя-бы ссылку с внешки . Докачаю

Создавать темы 08-Фев-2015 22:31

[Профиль]  [ЛС] 

nizom_19 ®

Стаж: 4 года 4 месяца

Сообщений: 60

Симпатии: 17

извините временно не смогу раздать с компьютером проблемы

Создавать темы 08-Фев-2015 23:34

[Профиль]  [ЛС] 

Grablidyork

Стаж: 3 года 10 месяцев

Сообщений: 13

Симпатии: 4

А зачем мы качаем?Автор уже 2 месяца как ушёл с раздачи.

Создавать темы 11-Фев-2015 10:43

[Профиль]  [ЛС] 
Показать сообщения:    
Ответить на тему

Текущее время: 24-Сен 04:47

Часовой пояс: UTC + 5



Вы не можете начинать темы
Вы не можете отвечать на сообщения
Вы не можете редактировать свои сообщения
Вы не можете удалять свои сообщения
Вы не можете голосовать в опросах
Вы не можете прикреплять файлы к сообщениям
Вы не можете скачивать файлы