Джек – покоритель великанов / Jack The Giant Slayer (Брайан Сингер) [2013 г., фэнтези, приключения, HDRip] [Чистый Звук]

Тема закрыта
 

oljas ®

Стаж: 5 лет 7 месяцев

Сообщений: 50

Джек – покоритель великанов/ Jack the Giant Slayer
«If you think you know the story, you don't know Jack.»

Год выпуска: 2013
Страна: США
Жанр: фэнтези, приключения
Продолжительность: 01:54:21
Перевод: Профессиональный (полное дублирование) [Чистый звук]
Режиссер: Брайан Сингер
Сценарий - Даррен Лемке, Кристофер МакКуорри, Дэн Стадни, ...
Продюсер - Дэвид Добкин, Ори Мармур, Патрик МакКормик, ...
Оператор - Ньютон Томас Сигел
Композитор - Джон Оттмен
Художник - Гэвин Боке, Марк Харрис, Фил Харви, ...
Монтаж -Боб Дюксэй, Джон Оттмен
В ролях: Николас Холт, Элинор Томлинсон, Юэн МакГрегор, Стэнли Туччи, Иэн МакШейн, Билл Найи,
Бен Дэниелс, Юэн Бремнер, Эдди Марсан,Джон Кассир
Описание: История начинается с похищения принцессы, что грозит нарушить хрупкий мир между людьми и великанами. Юный фермер возглавляет вылазку в царство гигантов в надежде спасти девушку.
Доп. информация:
Бюджет - $195 000 000
Сборы в мире - $197 527 857
Премьера (мир) - 27 февраля 2013, ...
Премьера (РФ) - 21 марта 2013, «Каро-Премьер» 3D
Релиз на Blu-Ray -20 июня 2013, «CP Дистрибуция», ...
Релиз на DVD - 20 июня 2013, «CP Дистрибуция», ...
Качество: HDRip
Формат: mkv
Видео кодек: V_MPEG4/ISO/AVC
Аудио кодек: AC3
Видео: 720x304, 2 400 kb/s,23.976 fps
Аудио: Russian: AC3, 320 Kbps(6 ch)
-

MI

D:\Downloads\JACK THE GIANT.mkv
General
Unique ID : 235085193891144628172877537150631035220 (0xB0DBC2EDB6604B07BDADE2C07C424154)
Complete name : D:\Downloads\JACK THE GIANT.mkv
Format : Matroska
File size : 2.17 GiB
Duration : 1h 54mn
Overall bit rate : 2 717 Kbps
Encoded date : UTC 2013-06-02 02:32:53
Writing application : mkvmerge v2.4.0 ('Fumbling Towards Ecstasy') built on Oct 11 2008 20:13:15
Writing library : libebml v0.7.7 + libmatroska v0.8.1
Video #1
ID : 1
Format : AVC
Format/Info : Advanced Video Codec
Format profile : [email protected]
Format settings, CABAC : No
Format settings, ReFrames : 1 frame
Codec ID : V_MPEG4/ISO/AVC
Duration : 1h 54mn
Bit rate : 2 400 Kbps
Width : 720 pixels
Height : 304 pixels
Display aspect ratio : 2.35:1
Frame rate : 23.976 fps
Color space : YUV
Chroma subsampling : 4:2:0
Bit depth : 8 bits
Scan type : Progressive
Bits/(Pixel*Frame) : 0.457
Stream size : 1.87 GiB (86%)
Writing library : x264 core 80 r1378+57 6f6b50a
Encoding settings : cabac=0 / ref=1 / deblock=1:0:0 / analyse=0x3:0x113 / me=hex / subme=7 / psy=1 / psy_rd=1.0:0.0 / mixed_ref=0 / me_range=16 / chroma_me=1 / trellis=0 / 8x8dct=1 / cqm=0 / deadzone=21,11 / fast_pskip=1 / chroma_qp_offset=-2 / threads=3 / sliced_threads=0 / nr=0 / decimate=1 / mbaff=0 / constrained_intra=0 / bframes=0 / wpredp=2 / keyint=250 / keyint_min=25 / scenecut=40 / rc_lookahead=40 / rc=abr / mbtree=1 / bitrate=2400 / ratetol=1.0 / qcomp=0.60 / qpmin=10 / qpmax=51 / qpstep=4 / ip_ratio=1.40 / aq=1:1.00
Audio #2
ID : 2
Format : AC-3
Format/Info : Audio Coding 3
Mode extension : CM (complete main)
Codec ID : A_AC3
Duration : 1h 54mn
Bit rate mode : Constant
Bit rate : 320 Kbps
Channel(s) : 6 channels
Channel positions : Front: L C R, Side: L R, LFE
Sampling rate : 48.0 KHz
Bit depth : 16 bits
Compression mode : Lossy
Stream size : 262 MiB (12%)

Скриншоты

Создавать темы 04-Июн-2013 19:15

[Профиль]  [ЛС] 

olim5631

Стаж: 4 года 9 месяцев

Сообщений: 120

Симпатии: 1

почему
Статус: # сомнительно
???

Создавать темы 04-Июн-2013 23:54

[Профиль]  [ЛС] 

Иви

Стаж: 5 лет 11 месяцев

Сообщений: 688

Симпатии: 65

Джек – покоритель великанов / Jack the Giant Slayer (Брайан Сингер / Bryan Singer) [2013 г., фэнтези, приключения, HDRip]
Джек – покоритель великанов / Jack the Giant Slayer (Брайан Сингер / Bryan Singer) [2013, США, Фэнтези, приключения, BDRip] Dub[Лицензия]
Джек – покоритель великанов / Jack the Giant Slayer (Брайан Сингер / Bryan Singer) [2013 г., фэнтези, приключения, BDRip][лицензия]

Создавать темы 19-Июн-2013 17:25

[Профиль]  [ЛС] 
Показать сообщения:    
Тема закрыта

Текущее время: 15-Дек 09:38

Часовой пояс: UTC + 5



Вы не можете начинать темы
Вы не можете отвечать на сообщения
Вы не можете редактировать свои сообщения
Вы не можете удалять свои сообщения
Вы не можете голосовать в опросах
Вы не можете прикреплять файлы к сообщениям
Вы не можете скачивать файлы