Мистер и Миссис Смит / Mr. & Mrs. Smith (Даг Лиман) [2006 г., комедия, триллер, боевик, мелодрама, HDRip]

Ответить на тему
 

D/T ®

Стаж: 7 лет 3 месяца

Сообщений: 6

Мистер и Миссис Смит / Mr. & Mrs. Smith
Год выпуска: 2006
Страна: США
Жанр: комедия, триллер, боевик, мелодрама
Продолжительность: 01:59:58
Перевод: Профессиональный (полное дублирование)
Режиссер: Даг Лиман
В ролях: Брэд Питт, Анджелина Джоли, Винс Вон, Адам Броуди, Керри Вашингтон, Кит Дэвид, Крис Уэйц, Мишель Монагэн, Стефани Марч, Дженнифер Моррисон
Описание: Джон и Джейн женаты не так долго, но уже утомлены своим браком. Им кажется, что они знают друг о друге все. Но есть кое-что, что каждый предпочитает держать при себе: оба они — наемные убийцы, которые тайно путешествуют по миру, выполняя опасные миссии. Эти отдельные тайные приключения становятся их общей судьбой в тот момент, когда Джейн получает заказ на Джона, а Джон на Джейн.
Качество: HDRip
Формат: AVI
Видео кодек: XviD
Аудио кодек: AC3
Видео: Xvid 720x304 23.976fps
Аудио: Dolby AC3 48000Hz 6ch 384kbps [01) rus]
Аудио: Dolby AC3 48000Hz 6ch 384kbps [02) eng]

Медиа Инфо

Format : AVI
Format/Info : Audio Video Interleave
Format profile : OpenDML
File size : 2.20 GiB
Duration : 1h 59mn
Overall bit rate : 2 621 Kbps
Writing application : VirtualDubMod 1.5.10.2 (build 2540/release)
Writing library : VirtualDubMod build 2540/release
Video
ID : 0
Format : MPEG-4 Visual
Format profile : Advanced [email protected]
Format settings, BVOP : 1
Format settings, QPel : No
Format settings, GMC : No warppoints
Format settings, Matrix : Default (MPEG)
Codec ID : XVID
Codec ID/Hint : XviD
Duration : 1h 59mn
Bit rate : 1 835 Kbps
Width : 720 pixels
Height : 304 pixels
Display aspect ratio : 2.35:1
Frame rate : 23.976 fps
Color space : YUV
Chroma subsampling : 4:2:0
Bit depth : 8 bits
Scan type : Progressive
Compression mode : Lossy
Bits/(Pixel*Frame) : 0.350
Stream size : 1.54 GiB (70%)
Writing library : XviD 1.2.1 (UTC 2008-12-04)
Audio #1
ID : 1
Format : AC-3
Format/Info : Audio Coding 3
Mode extension : CM (complete main)
Format settings, Endianness : Big
Codec ID : 2000
Duration : 1h 59mn
Bit rate mode : Constant
Bit rate : 384 Kbps
Channel(s) : 6 channels
Channel positions : Front: L C R, Side: L R, LFE
Sampling rate : 48.0 KHz
Bit depth : 16 bits
Compression mode : Lossy
Stream size : 330 MiB (15%)
Alignment : Split accross interleaves
Interleave, duration : 42 ms (1.00 video frame)
Interleave, preload duration : 500 ms
Title : rus
Audio #2
ID : 2
Format : AC-3
Format/Info : Audio Coding 3
Mode extension : CM (complete main)
Format settings, Endianness : Big
Codec ID : 2000
Duration : 1h 59mn
Bit rate mode : Constant
Bit rate : 384 Kbps
Channel(s) : 6 channels
Channel positions : Front: L C R, Side: L R, LFE
Sampling rate : 48.0 KHz
Bit depth : 16 bits
Compression mode : Lossy
Stream size : 330 MiB (15%)
Alignment : Split accross interleaves
Interleave, duration : 42 ms (1.00 video frame)
Interleave, preload duration : 500 ms
Title : eng

Скриншоты



Создавать темы 04-Июн-2013 19:59

[Профиль]  [ЛС] 

Slowwalker

Стаж: 4 года 9 месяцев

Сообщений: 165

Симпатии: 68

Эх бедная Анжелина... ac

Создавать темы 04-Июн-2013 21:09

[Профиль]  [ЛС] 

dilshod5254

Стаж: 6 лет 6 месяцев

Сообщений: 106

Симпатии: 14

Эх бедная Анжелина... ac
что с ней? или это про филма

Создавать темы 05-Июн-2013 08:42

[Профиль]  [ЛС] 

Slowwalker

Стаж: 4 года 9 месяцев

Сообщений: 165

Симпатии: 68

dilshod5254, нет фильм супер! ну нее рак груди нашли ((

Создавать темы 05-Июн-2013 09:09

[Профиль]  [ЛС] 

ololololo

Стаж: 5 лет 5 месяцев

Сообщений: 16

вы чо народ? у нее не нашли рак, у нее обнаружили высокую предрасположенность к нему, и она удалила молочные железы.
Буквально несколько дней назад она появилась на премьере фильма Бреда Питта Война миров Z. Выглядит как всегда шикарно )

Создавать темы 05-Июн-2013 09:12

[Профиль]  [ЛС] 

vovik1

Стаж: 4 года 5 месяцев

Сообщений: 49

Симпатии: 1

скорость прибавьте

Создавать темы 19-Сен-2013 17:53

[Профиль]  [ЛС] 

saper93

Стаж: 5 лет 3 месяца

Сообщений: 5

скорости плиз

Создавать темы 22-Дек-2013 00:16

[Профиль]  [ЛС] 

vovik1

Стаж: 4 года 5 месяцев

Сообщений: 49

Симпатии: 1

народ! помогите с раздачей

Создавать темы 30-Дек-2013 11:49

[Профиль]  [ЛС] 

vovik1

Стаж: 4 года 5 месяцев

Сообщений: 49

Симпатии: 1

чуть осталось.дайте докачать

Создавать темы 10-Янв-2014 00:01

[Профиль]  [ЛС] 

McFLY

Стаж: 5 лет 7 месяцев

Сообщений: 658

Симпатии: 22

843363столько месяцев ждал.. да пошли вы все в жопы, уроды
:cd: Ну всё ... довели .. не выдержал парень

Создавать темы 14-Июн-2014 19:54

[Профиль]  [ЛС] 

anikosik

Стаж: 5 лет 7 месяцев

Сообщений: 24

Год выпуска разве не 2005?

Создавать темы 21-Июн-2014 21:05

[Профиль]  [ЛС] 
Показать сообщения:    
Ответить на тему

Текущее время: 20-Окт 10:18

Часовой пояс: UTC + 5



Вы не можете начинать темы
Вы не можете отвечать на сообщения
Вы не можете редактировать свои сообщения
Вы не можете удалять свои сообщения
Вы не можете голосовать в опросах
Вы не можете прикреплять файлы к сообщениям
Вы не можете скачивать файлы