[#71] Зелёная миля / The Green Mile (Фрэнк Дарабонт / Frank Darabont) [1998 г., фэнтези,драма,криминал, детектив, BDRip]

Ответить на тему
 

Djoni111095 ®

Стаж: 4 года 10 месяцев

Сообщений: 57

Симпатии: 11

Зелёная миля / The Green Mile
Год выпуска: 1998
Страна: США
Жанр: фэнтези,драма,криминал, детектив
Продолжительность: 03:08:37
Перевод: Профессиональный (полное дублирование) + Оригинальная дорожка
Субтитры: Русские, Английские-Режиссер: Фрэнк Дарабонт
Сценарий: Фрэнк Дарабонт, Стивен Кинг
Продюсер: Фрэнк Дарабонт, Дэвид Валдес
Оператор: Дэвид Тэттерсолл
Композитор : Томас Ньюман
Художник: Теренс Марш, Уильям Крус, Керин Вагнер,...
Монтаж: Ричард Фрэнсис-Брюс
Бюджет: $60 000 000
Сборы в США: $136 801 374
Сборы в мире: + $150 000 000 = $286 801 374
Премьера (мир): 6 декабря 1999, ...
Премьера (РФ): 13 марта 2008, «Каро-Премьер»
Релиз на DVD: 26 ноября 2012, «Новый Диск», ...
Возраст:зрителям, достигшим 16 лет-В ролях: Том Хэнкс, Дэвид Морс, Бонни Хант, Майкл Кларк Дункан, Джеймс Кромуэлл, Майкл Джетер, Грэхэм Грин, Даг Хатчинсон, Сэм Роквэлл, Бэрри Пеппер-Описание: Обвиненный в страшном преступлении, Джон Коффи оказывается в блоке смертников тюрьмы «Холодная гора». Вновь прибывший обладал поразительным ростом и был пугающе спокоен, что, впрочем, никак не влияло на отношение к нему начальника блока Пола Эджкомба, привыкшего исполнять приговор.
Гигант удивил всех позже, когда выяснилось, что он обладает невероятной магической силой…--

Mediainfo

General
Unique ID : 204996422323774057996728227472785883778 (0x9A38DFF4809E950D8EE43A2807C54282)
Complete name : D:\The.Green.Mile.1999.BDRip.720.Rus.Sub.stimtoo.mkv
Format : Matroska
Format version : Version 2
File size : 4.54 GiB
Duration : 3h 8mn
Overall bit rate : 3 445 Kbps
Movie name : The Green Mile (1999) BDRip 720p
Encoded date : UTC 2011-12-11 05:51:51
Writing application : mkvmerge v3.4.0 ('Rapunzel') сборка от May 15 2010 09:38:20
Writing library : libebml v0.8.0 + libmatroska v0.9.0
Video
ID : 1
Format : AVC
Format/Info : Advanced Video Codec
Format profile : [email protected]
Format settings, CABAC : Yes
Format settings, ReFrames : 8 frames
Codec ID : V_MPEG4/ISO/AVC
Duration : 3h 8mn
Bit rate : 2 544 Kbps
Width : 1 280 pixels
Height : 720 pixels
Display aspect ratio : 16:9
Frame rate : 23.976 fps
Color space : YUV
Chroma subsampling : 4:2:0
Bit depth : 8 bits
Scan type : Progressive
Bits/(Pixel*Frame) : 0.115
Stream size : 3.35 GiB (74%)
Title : Release by stim_too
Writing library : x264 core 80 r1376M 3feaec2
Encoding settings : cabac=1 / ref=8 / deblock=1:-3:-2 / analyse=0x3:0x113 / me=tesa / subme=10 / psy=1 / psy_rd=1.0:0.0 / mixed_ref=0 / me_range=32 / chroma_me=1 / trellis=2 / 8x8dct=1 / cqm=0 / deadzone=21,11 / fast_pskip=1 / chroma_qp_offset=-2 / threads=12 / sliced_threads=0 / nr=0 / decimate=1 / mbaff=0 / constrained_intra=0 / bframes=5 / b_pyramid=2 / b_adapt=2 / b_bias=0 / direct=3 / wpredb=1 / wpredp=2 / keyint=250 / keyint_min=25 / scenecut=40 / rc_lookahead=40 / rc=crf / mbtree=1 / crf=21.0 / qcomp=0.80 / qpmin=10 / qpmax=51 / qpstep=4 / vbv_maxrate=50000 / vbv_bufsize=62500 / ip_ratio=1.40 / aq=1:1.00
Language : Russian
Default : No
Forced : No
Audio #1
ID : 2
Format : AC-3
Format/Info : Audio Coding 3
Mode extension : CM (complete main)
Codec ID : A_AC3
Duration : 3h 8mn
Bit rate mode : Constant
Bit rate : 384 Kbps
Channel(s) : 6 channels
Channel positions : Front: L C R, Side: L R, LFE
Sampling rate : 48.0 KHz
Bit depth : 16 bits
Compression mode : Lossy
Stream size : 518 MiB (11%)
Title : AC3 384 kbps Rus (Dub)
Language : Russian
Default : Yes
Forced : No
Audio #2
ID : 3
Format : AC-3
Format/Info : Audio Coding 3
Mode extension : CM (complete main)
Codec ID : A_AC3
Duration : 3h 8mn
Bit rate mode : Constant
Bit rate : 448 Kbps
Channel(s) : 6 channels
Channel positions : Front: L C R, Side: L R, LFE
Sampling rate : 48.0 KHz
Bit depth : 16 bits
Compression mode : Lossy
Stream size : 604 MiB (13%)
Language : English
Default : No
Forced : No
Text #1
ID : 4
Format : UTF-8
Codec ID : S_TEXT/UTF8
Codec ID/Info : UTF-8 Plain Text
Title : Sub (Rus)
Language : Russian
Default : Yes
Forced : No
Text #2
ID : 5
Format : UTF-8
Codec ID : S_TEXT/UTF8
Codec ID/Info : UTF-8 Plain Text
Title : Sub (Eng)
Language : English
Default : No
Forced : No
Качество: BDRip
Формат: MKV
Видео кодек: H.26x
Аудио кодек: AC3
Видео: MPEG4 AVC Video (H.264) 1280x720 23.976fps ~2610 kbps
Аудио: Русский AC3 48000Hz 6ch 384 kbps Английский AC3 48000Hz 6ch 448 kbps

Скриншоты



Создавать темы 04-Июн-2013 23:46

[Профиль]  [ЛС] 

Топик был перенесен из форума Зарубежное кино в форум HD-AVC

ziyod

Создавать темы 07-Июн-2013 06:34

 

халит

Стаж: 7 лет 3 месяца

Сообщений: 12

Симпатии: 1

народ дайте скорости!!!!!

Создавать темы 16-Дек-2013 21:25

[Профиль]  [ЛС] 

freestyle

Стаж: 5 лет 8 месяцев

Сообщений: 55

Симпатии: 4

шикарный фильм

Создавать темы 17-Фев-2014 10:58

[Профиль]  [ЛС] 

siyovush101

Стаж: 3 года 7 месяцев

Сообщений: 205

Симпатии: 71

Спасибо За Релиз Брат!


Последний раз редактировалось: siyovush101 (2014-04-25 14:27), всего редактировалось 1 раз

Создавать темы 13-Мар-2014 16:47

[Профиль]  [ЛС] 

anvarjon2013

Стаж: 4 года 2 месяца

Сообщений: 4

дайте раздачу, плиз

Создавать темы 14-Мар-2014 18:06

[Профиль]  [ЛС] 

MoDeStBoY

Стаж: 6 лет

Сообщений: 22

дайте скорости plz

Создавать темы 17-Янв-2015 23:53

[Профиль]  [ЛС] 

MoDeStBoY

Стаж: 6 лет

Сообщений: 22

вернитесь на раздачу

Создавать темы 18-Янв-2015 10:26

[Профиль]  [ЛС] 

MoDeStBoY

Стаж: 6 лет

Сообщений: 22

помогите скачать ребята

Создавать темы 18-Янв-2015 10:26

[Профиль]  [ЛС] 
Показать сообщения:    
Ответить на тему

Текущее время: 20-Сен 01:33

Часовой пояс: UTC + 5



Вы не можете начинать темы
Вы не можете отвечать на сообщения
Вы не можете редактировать свои сообщения
Вы не можете удалять свои сообщения
Вы не можете голосовать в опросах
Вы не можете прикреплять файлы к сообщениям
Вы не можете скачивать файлы