Призрачный гонщик 2 3D / Ghost Rider: Spirit of Vengeance 3D (Марк Невелдайн, Брайан Тейлор) [2012 г., фэнтези, боевик, триллер, BDRip 1080p]

Ответить на тему
 

nizom_19 ®

Стаж: 4 года 6 месяцев

Сообщений: 60

Симпатии: 17

Призрачный гонщик 2 3D / Ghost Rider: Spirit of Vengeance 3D
Год выпуска: 2012
Страна: США
Жанр: фэнтези, боевик, триллер
Продолжительность: 01:35:31
Перевод: Профессиональный (полное дублирование)
Режиссер: Марк Невелдайн, Брайан Тейлор
В ролях: Николас Кейдж, Кирен Хайдз, Виоланте Плачидо, Джонни Витуорт, Кристофер Ламберт, Идрис Эльба, Фергус Риордан, Спенсер Уидлинг, Сорин Тофан, Яцек Коман и др.
Описание: Действие разворачивается на задворках Восточной Европы, где главный герой Джонни Блэйз безуспешно пытается справиться со своим проклятием. Его принимает на работу некая секта, которая пытается заполучить дьявола в тот момент, когда он пытается вселиться в тело его смертного сына на дне рождения мальчика.
Качество: BDRip
Формат: MKV
Формат 3D: Half SideBySide / Горизонтальная анаморфная стереопара
Видео кодек: x264
Аудио кодек: AC3
Видео: AVC, 1920x1080, 10 Mbps, 23.976 fps
Аудио 1: 6 ch, 48 000 Гц, 448 Kbps
Аудио 2: 6 ch, 48 000 Гц, 640 Kbps

media info

C:\3d\Ïðèçðà÷íûé ãîíùèê 2 3D. Ghost Rider-Spirit of Vengeance Dub 3D.mkv
   General
      Unique ID : 237956513470103527466056665481972775316 (0xB304C1E9E87F0454B6657F509A6B7994)
      Complete name : C:\3d\Ïðèçðà÷íûé ãîíùèê 2 3D. Ghost Rider-Spirit of Vengeance Dub 3D.mkv
      Format : Matroska
      Format version : Version 2
      File size : 7.26 GiB
      Duration : 1h 35mn
      Overall bit rate : 10.9 Mbps
      Movie name : cnliti
      Encoded date : UTC 2012-05-28 09:28:37
      Writing application : mkvmerge v4.0.0 ('The Stars were mine') ñáîðêà îò Jun  6 2010 16:18:42
      Writing library : libebml v1.0.0 + libmatroska v1.0.0
   Video #1
      ID : 1
      Format : AVC
      Format/Info : Advanced Video Codec
      Format profile : [email protected]
      Format settings, CABAC : Yes
      Format settings, ReFrames : 4 frames
      Codec ID : V_MPEG4/ISO/AVC
      Duration : 1h 35mn
      Bit rate : 10 000 Kbps
      Width : 1 920 pixels
      Height : 1 080 pixels
      Display aspect ratio : 16:9
      Frame rate mode : Constant
      Frame rate : 23.976 fps
      Color space : YUV
      Chroma subsampling : 4:2:0
      Bit depth : 8 bits
      Scan type : Progressive
      Bits/(Pixel*Frame) : 0.201
      Stream size : 6.39 GiB (88%)
      Writing library : x264 core 120 r2146 bcd41db
      Encoding settings : cabac=1 / ref=3 / deblock=1:0:0 / analyse=0x3:0x113 / me=hex / subme=7 / psy=1 / psy_rd=1.00:0.00 / mixed_ref=1 / me_range=16 / chroma_me=1 / trellis=1 / 8x8dct=1 / cqm=0 / deadzone=21,11 / fast_pskip=1 / chroma_qp_offset=-2 / threads=12 / sliced_threads=0 / nr=0 / decimate=1 / interlaced=0 / bluray_compat=0 / constrained_intra=0 / bframes=3 / b_pyramid=2 / b_adapt=1 / b_bias=0 / direct=1 / weightb=1 / open_gop=0 / weightp=2 / keyint=250 / keyint_min=23 / scenecut=40 / intra_refresh=0 / rc_lookahead=40 / rc=abr / mbtree=1 / bitrate=10000 / ratetol=1.0 / qcomp=0.60 / qpmin=0 / qpmax=69 / qpstep=4 / ip_ratio=1.40 / aq=1:1.00
      Language : English
      Default : No
      Forced : No
   Audio #2
      ID : 2
      Format : AC-3
      Format/Info : Audio Coding 3
      Mode extension : CM (complete main)
      Format settings, Endianness : Big
      Codec ID : A_AC3
      Duration : 1h 35mn
      Bit rate mode : Constant
      Bit rate : 448 Kbps
      Channel(s) : 6 channels
      Channel positions : Front: L C R, Side: L R, LFE
      Sampling rate : 48.0 KHz
      Bit depth : 16 bits
      Compression mode : Lossy
      Stream size : 306 MiB (4%)
      Language : Russian
      Default : Yes
      Forced : No
   Audio #3
      ID : 3
      Format : AC-3
      Format/Info : Audio Coding 3
      Mode extension : CM (complete main)
      Format settings, Endianness : Big
      Codec ID : A_AC3
      Duration : 1h 35mn
      Bit rate mode : Constant
      Bit rate : 640 Kbps
      Channel(s) : 6 channels
      Channel positions : Front: L C R, Side: L R, LFE
      Sampling rate : 48.0 KHz
      Bit depth : 16 bits
      Compression mode : Lossy
      Stream size : 437 MiB (6%)
      Language : English
      Default : No
      Forced : No

Скриншоты



Последний раз редактировалось: nizom_19 (2013-06-06 17:18), всего редактировалось 3 раз(а)

Создавать темы 06-Июн-2013 06:04

[Профиль]  [ЛС] 

whiteskull

Стаж: 6 лет 10 месяцев

Сообщений: 47

Симпатии: 6

Полный повтор релиза одного из местных трекеров (между прочим, моя раздача). Мог бы хотя бы скриншоты свои сделать.

Создавать темы 06-Июн-2013 07:12

[Профиль]  [ЛС] 

nizom_19 ®

Стаж: 4 года 6 месяцев

Сообщений: 60

Симпатии: 17

больше нечего не твой

Создавать темы 06-Июн-2013 10:51

[Профиль]  [ЛС] 

StevenS1

Стаж: 5 лет 1 месяц

Сообщений: 36

неужели нельзя сделать скрины через stereoscopic player?!

Создавать темы 06-Июн-2013 14:15

[Профиль]  [ЛС] 

nizom_19 ®

Стаж: 4 года 6 месяцев

Сообщений: 60

Симпатии: 17

StevenS1, не знаю

Создавать темы 06-Июн-2013 15:08

[Профиль]  [ЛС] 

Valentina

Стаж: 4 года 1 месяц

Сообщений: 8

похоже больше 28% не качает? что за ерунда? три недели все на 28 %

Создавать темы 11-Фев-2014 00:47

[Профиль]  [ЛС] 

M_A_K

Стаж: 5 лет 10 месяцев

Сообщений: 100

Симпатии: 15

Valentina, потому что никто не раздает вот и сидим на 28% я уже полтора месяца жду

Создавать темы 11-Фев-2014 10:36

[Профиль]  [ЛС] 

Valentina

Стаж: 4 года 1 месяц

Сообщений: 8

даааа.... обидно, хотелось глянуть в 3Д

Создавать темы 11-Фев-2014 18:42

[Профиль]  [ЛС] 

M_A_K

Стаж: 5 лет 10 месяцев

Сообщений: 100

Симпатии: 15

я докачаю в другом месте обязательно вам раздам не печальтесь народ

Создавать темы 04-Мар-2014 13:47

[Профиль]  [ЛС] 
Показать сообщения:    
Ответить на тему

Текущее время: 21-Ноя 14:51

Часовой пояс: UTC + 5



Вы не можете начинать темы
Вы не можете отвечать на сообщения
Вы не можете редактировать свои сообщения
Вы не можете удалять свои сообщения
Вы не можете голосовать в опросах
Вы не можете прикреплять файлы к сообщениям
Вы не можете скачивать файлы