Посейдон / Poseidon (Вольфганг Петерсен / Wolfgang Petersen) [2006 г., боевик, триллер, приключения, BDRip, AVC-720p] > Dub+Mvo+Eng > subs(rus, eng)

Ответить на тему
 

Robot-IX ®

Стаж: 5 лет 7 месяцев

Сообщений: 223

Симпатии: 9

Посейдон / Poseidon«Mayday...»- Год выпуска: 2006
Страна: США
Студия: Warner Bros. Pictures, Virtual Studios, Radiant Productions,
Next Entertainment, Irwin Allen Productions, Synthesis Entertainment

Жанр: Боевик, триллер, драма, приключения, ...
Продолжительность: 01:38:15
Перевод:
-профессиональный (полное дублирование) -
Роли дублировали: Сергей Бурунов, Владимир Антоник, Лариса Некипелова, Никита Прозоровский,
Татьяна Шитова ...
-Профессиональный (многоголосый, закадровый)
Оригинальная аудиодорожка: английская
Субтитры: русские полные, английские полные-Режиссёр: Вольфганг Петерсен / Wolfgang Petersen
Сценарий: Марк Протосевич, Пол Галлико
Продюсер: Майк Флайсс, Акива Голдсман, Дункан Хендерсон, ...
Оператор: Джон Сил
Композитор: Клаус Баделт-В ролях: Джош Лукас, Курт Рассел, Джасинда Бэррет, Ричард Дрейфусс, Эмми Россам,
Миа Маэстро, Майк Фогель, Кевин Диллон, Фредди Родригес, Джимми Беннетт ...-Описание:
Накануне новогоднего праздника в Атлантическом океане терпит бедствие шикарный круизный
лайнер «Посейдон», который перевернула гигантская приливная волна. В то время, как сотни
выживших пассажиров, выполняя указания капитана, остаются в главном танцзале и ждут помощи
с берега, профессиональный картежник Дилан Джонс ищет свой путь к спасению.
Компанию Дилану вопреки его желанию составляют девятилетний Конор со своей матерью Мэгги,
Роберт Рэмси, пытающийся отыскать свою дочь по имени Дженнифер, а также ее жених Кристиан.
К ним присоединяются застенчивая безбилетница, пожилой гей, намеревавшийся покончить с собой,
и молодой официант. Все они прилагают невероятные усилия, чтобы выбраться из тонущего корабля
на поверхность…-Доп. информация:
IMDb: 5,6/10
КиноПоиск: 6.587/10
MPAA: PG13 - Детям до 13 лет просмотр не желателен

Знаете ли вы что...

  • Сцены во внутренних помещениях корабля были сняты на двух отдельных звуконепроницаемых
    съёмочных площадках на студии Warner Bros. в Бёрбанке, Калифорния. Одна из них представляла
    собой большой зал и другие помещения в нормальном виде, другая — в перевёрнутом.
  • «Перевёрнутая» съёмочная площадка была построена наверху огромного бака для воды,
    который можно было наполнить или осушить за считанные часы.
  • Во время подводных съёмок Джош Лукас получил травму, когда Курт Рассел угодил своим фонариком
    ему по голове и задел глаз.
  • Многие актёры и члены съёмочной группы не обошлись без незначительных повреждений
    и инфекций из-за пребывания в грязной воде по много часов в день.
-Качество: BDRip-AVC 720p
Формат: MKV (Matroska)
Видео кодек: H.264
Аудио кодек: AС3, DTS
Видео: H.264, 1280x530, 23.976 fps, ~6 459 Kbps, 0,397 bit/pixel,
Аудио №1: Русский, AC3, 5.1 ch (L,C,R,l,r) + LFE, 48.0 KHz, 448 kbps | Полное дублирование
Аудио №2: Русский, AC3, 5.1 ch (L,C,R,l,r) + LFE, 48.0 KHz, 448 kbps | Многоголосый закадровый
Аудио №3: Английский, DTS, 5.1 ch (L,C,R,l,r) + LFE, 48.0 KHz, 1 510 kbps | Оригинал
Субтитры №1: Русские, SRT (full/полные) - отключены
Субтитры №2: Английские, SRT (full/полные) - отключены-

MediaInfo

General
Unique ID : 225349773452585534108524606772458521449 (0xA988C9A46F3BB761809C5A3148178369)
Complete name : D:\Torent\Poseidon.2006.720p.BluRay.DTS.x264.Rus.Eng.mkv
Format : Matroska
Format version : Version 4 / Version 2
File size : 6.08 GiB
Duration : 1h 38mn
Overall bit rate : 8 848 Kbps
Encoded date : UTC 2013-06-06 04:12:07
Writing application : mkvmerge v6.0.0 ('Coming Up For Air') built on Jan 20 2013 09:52:00
Writing library : libebml v1.3.0 + libmatroska v1.4.0
Video
ID : 1
Format : AVC
Format/Info : Advanced Video Codec
Format profile : [email protected]
Format settings, CABAC : Yes
Format settings, ReFrames : 6 frames
Codec ID : V_MPEG4/ISO/AVC
Duration : 1h 38mn
Bit rate : 6 459 Kbps
Width : 1 280 pixels
Height : 530 pixels
Display aspect ratio : 2.40:1
Frame rate : 23.976 fps
Color space : YUV
Chroma subsampling : 4:2:0
Bit depth : 8 bits
Scan type : Progressive
Bits/(Pixel*Frame) : 0.397
Stream size : 4.31 GiB (71%)
Title : Poseidon (2006)
Writing library : x264 core 84 r1400M 20fa784
Encoding settings : cabac=1 / ref=6 / deblock=1:-3:-3 / analyse=0x3:0x113 / me=umh / subme=10 / psy=1 / psy_rd=0.8:0.0 / mixed_ref=1 / me_range=64 / chroma_me=1 / trellis=2 / 8x8dct=1 / cqm=0 / deadzone=21,11 / fast_pskip=0 / chroma_qp_offset=-2 / threads=8 / sliced_threads=0 / nr=0 / decimate=1 / mbaff=0 / constrained_intra=0 / bframes=8 / b_pyramid=0 / b_adapt=2 / b_bias=0 / direct=3 / wpredb=1 / wpredp=2 / keyint=250 / keyint_min=25 / scenecut=40 / intra_refresh=0 / rc=2pass / mbtree=0 / bitrate=6459 / ratetol=1.0 / qcomp=0.60 / qpmin=10 / qpmax=51 / qpstep=4 / cplxblur=20.0 / qblur=0.5 / ip_ratio=1.40 / pb_ratio=1.30 / aq=1:0.60 / pulldown=0 / nal_hrd=0
Language : English
Default : Yes
Forced : No
Audio #1
ID : 2
Format : AC-3
Format/Info : Audio Coding 3
Mode extension : CM (complete main)
Format settings, Endianness : Big
Codec ID : A_AC3
Duration : 1h 38mn
Bit rate mode : Constant
Bit rate : 448 Kbps
Channel(s) : 6 channels
Channel positions : Front: L C R, Side: L R, LFE
Sampling rate : 48.0 KHz
Bit depth : 16 bits
Compression mode : Lossy
Stream size : 315 MiB (5%)
Title : AC3 5.1 448kbps (Дубляж)
Language : Russian
Default : Yes
Forced : No
Audio #2
ID : 3
Format : AC-3
Format/Info : Audio Coding 3
Mode extension : CM (complete main)
Format settings, Endianness : Big
Codec ID : A_AC3
Duration : 1h 38mn
Bit rate mode : Constant
Bit rate : 448 Kbps
Channel(s) : 6 channels
Channel positions : Front: L C R, Side: L R, LFE
Sampling rate : 48.0 KHz
Bit depth : 16 bits
Compression mode : Lossy
Delay relative to video : 3s 0ms
Stream size : 315 MiB (5%)
Title : AC3 5.1 448kbps (Многоголосый)
Language : Russian
Default : No
Forced : No
Audio #3
ID : 4
Format : DTS
Format/Info : Digital Theater Systems
Codec ID : A_DTS
Duration : 1h 38mn
Bit rate mode : Constant
Bit rate : 1 510 Kbps
Channel(s) : 6 channels
Channel positions : Front: L C R, Side: L R, LFE
Sampling rate : 48.0 KHz
Bit depth : 24 bits
Compression mode : Lossy
Stream size : 1.04 GiB (17%)
Title : DTS 5.1 1536kbps
Language : English
Default : No
Forced : No
Text #1
ID : 5
Format : UTF-8
Codec ID : S_TEXT/UTF8
Codec ID/Info : UTF-8 Plain Text
Language : Russian
Default : No
Forced : No
Text #2
ID : 6
Format : UTF-8
Codec ID : S_TEXT/UTF8
Codec ID/Info : UTF-8 Plain Text
Language : English
Default : No
Forced : No

Скриншоты







Создавать темы 06-Июн-2013 09:53

[Профиль]  [ЛС] 

KennY

Стаж: 7 лет

Сообщений: 82

Симпатии: 1

Спасибо очень люблю это кино обязательно скачаю !!!!!!!!!!!!!!

Создавать темы 06-Июн-2013 14:07

[Профиль]  [ЛС] 

KIRUSH

Стаж: 4 года 8 месяцев

Сообщений: 10

БЫЛО БЫ 1080Р БЫЛОБ КРУТО... ОБЯЗАТЕЛЬНО КАЧНУЛ БЫ... А ТАК ПОДУМАЮ ПОСМОТРЮ.. ЕСЛИ СКОРОСТЬ БУДЕТ УДОВЛЕТВОРИТЕЛЬНАЯ МОЖЕТ И СКАЧАЮ...

Создавать темы 06-Июн-2013 19:14

[Профиль]  [ЛС] 
Показать сообщения:    
Ответить на тему

Текущее время: 23-Ноя 21:52

Часовой пояс: UTC + 5



Вы не можете начинать темы
Вы не можете отвечать на сообщения
Вы не можете редактировать свои сообщения
Вы не можете удалять свои сообщения
Вы не можете голосовать в опросах
Вы не можете прикреплять файлы к сообщениям
Вы не можете скачивать файлы