Молот богов / Hammer of the Gods (Фэррен Блэкберн) (2013 г., боевик,WEB-DLRip) [VO]

Ответить на тему
 

ruslan08 ®

Стаж: 5 лет 10 месяцев

Сообщений: 73

Симпатии: 7

Молот богов / Hammer of the Gods
-
Русское название: Молот богов
Оригинальное название: Hammer of the Gods
Год выпуска: 2013
Производство: Великобритания / Vertigo Films
Жанр: Боевик
Продолжительность: 01:38:43
Перевод: Одноголосый закадровый, любительский [den904]
Субтитры: Отсутствуют-Дата мировой премьеры: 9 мая 2013-Режиссер: Фэррен Блэкберн
Продюсер: Руперт Престон, Хуберта Фон Лиэль, Кейт Гловер
Актеры: Чарли Бьюли, Клайв Стэнден, Джеймс Космо, Эллиот Кауэн, Глайнис Барбер, Айван Кэй, Майкл Джибсон, Гай Флэнеган, Тео Барклем-Биггз, Александра Доулинг-
Страстный молодой человек превращается в жестокого воина, во время своих путешествий в поисках давно потерянного брата.-
Качество видео: WEB-DLRip
Видео кодек: Xvid
Размер кадра: 720 x 304
Аудио кодек: AC3
Битрейт видео: ~1716 Kbit/s
Битрейт аудио: 5.1 ch 384 Kbit/s

MediaInfo

Общее
Полное имя : D:\Торренты\Молот богов.2013.WEB-DLRip.avi
Формат : AVI
Формат/Информация : Audio Video Interleave
Размер файла : 1,46 Гбайт
Продолжительность : 1 ч. 38 м.
Общий поток : 2109 Кбит/сек
Программа кодирования : VirtualDubMod 1.5.10.2 (build 2540/release)
Библиотека кодирования : VirtualDubMod build 2540/release
Видео
Идентификатор : 0
Формат : MPEG-4 Visual
Профиль формата : Advanced [email protected]
Параметр BVOP формата : 2
Параметр QPel формата : Нет
Параметр GMC формата : Без точки перехода
Параметр матрицы формата : Default (H.263)
Идентификатор кодека : XVID
Идентификатор кодека/Подсказка : XviD
Продолжительность : 1 ч. 38 м.
Битрейт : 1716 Кбит/сек
Ширина : 720 пикс.
Высота : 304 пикс.
Соотношение сторон : 2,35:1
Частота кадров : 23,976 кадр/сек
Цветовое пространство : YUV
Подвыборка цветности : 4:2:0
Битовая глубина : 8 бит
Тип развёртки : Прогрессивная
Метод сжатия : С потерями
Бит/(Пиксели*Кадры) : 0.327
Размер потока : 1,19 Гбайт (81%)
Библиотека кодирования : XviD 1.2.1 (UTC 2008-12-04)
Аудио
Идентификатор : 1
Формат : AC-3
Формат/Информация : Audio Coding 3
Расширение режима : CM (complete main)
Идентификатор кодека : 2000
Продолжительность : 1 ч. 38 м.
Вид битрейта : Постоянный
Битрейт : 384 Кбит/сек
Каналы : 6 каналов
Расположение каналов : Front: L C R, Side: L R, LFE
Частота : 48,0 КГц
Битовая глубина : 16 бит
Метод сжатия : С потерями
Размер потока : 272 Мбайт (18%)
Выравнивание : Разделение по промежуткам
Продолжительность промежутка : 42 мс. (1,00 видеокадр)
Время предзагрузки промежутка : 500 ms

Скриншоты



Последний раз редактировалось: ruslan08 (2013-06-06 14:03), всего редактировалось 1 раз

Создавать темы 06-Июн-2013 13:29

[Профиль]  [ЛС] 

Cs_Gamer

Стаж: 4 года 5 месяцев

Сообщений: 16

встань на раздачу

Создавать темы 08-Июн-2013 07:43

[Профиль]  [ЛС] 

Asadovdiyor

Стаж: 5 лет 10 месяцев

Сообщений: 192

народ кто скачал дайте отзывы о фильме bi

Создавать темы 08-Июн-2013 10:26

[Профиль]  [ЛС] 

Honda

Стаж: 7 лет

Сообщений: 93

Симпатии: 1

тэвэтри?

Создавать темы 08-Июн-2013 10:31

[Профиль]  [ЛС] 

Xoshimbek

Стаж: 4 года 9 месяцев

Сообщений: 8

Спасшбо за филм Молот богов!!!

Создавать темы 15-Июн-2013 07:45

[Профиль]  [ЛС] 

kvint

Стаж: 7 лет 9 месяцев

Сообщений: 84

Симпатии: 5

Фильм, при скромном бюджете, годный. Ниразу не тв3
По началу смахивает на сериал Викинги. То же сражение на краю скалы, тот же актер и пр.
Не плохие актеры, боевые сцены хорошо поставлены.
Больше всего запомнились рубилова на мечах под музыкальное сопровождение дабстепа, ну или какой-то другой электронки. Интересно получилось)

Создавать темы 18-Июн-2013 21:10

[Профиль]  [ЛС] 
Показать сообщения:    
Ответить на тему

Текущее время: 19-Ноя 21:18

Часовой пояс: UTC + 5



Вы не можете начинать темы
Вы не можете отвечать на сообщения
Вы не можете редактировать свои сообщения
Вы не можете удалять свои сообщения
Вы не можете голосовать в опросах
Вы не можете прикреплять файлы к сообщениям
Вы не можете скачивать файлы