Трудная мишень / Hard Target (Джон Ву) [1993 г., Боевик, HDTVRip]

Ответить на тему
 

maxuz ®

Стаж: 6 лет 8 месяцев

Сообщений: 55

Симпатии: 3

Трудная мишень / Hard Target-- --Год выпуска: 1993--Страна: США--Жанр: Боевик,--Продолжительность: 01:36:00--Перевод: Профессиональный (многоголосый, двухголосый закадровый); авторский одноголосый Андрея Гаврилова и Василия Горчакова,--Режиссер: Джон Ву--В ролях: Жан-Клод Ван Дамм, Чак Пфаррер, Роберт Аписа, Арнольд Вослоу, Лэнс Хенриксен, Дуглас Форсайт Рай, Майк Лейнерт, Янси Батлер, Ленор Бэнкс, Уилли С. Карпентер--Описание: Богач из Нью-Орлеана Фушон приглашает гостей для того, чтобы открыть на них охоту. Однажды на его след нападает девушка Наташа, разыскивающая своего пропавшего отца. Вместе с ней засаду на Фушона устраивает некто Шанс Бодро, от которого еще никто не уходил по добру по здорову.--Качество: HDTVRip
Формат: MKV
Видео кодек: H.264
Аудио кодек: AC3--Видео: 1280x690, 4 857 Kbps, 23.98fps
Аудио1:Rus; 48000Hz; 2ch; 384kbps [многоголосый перевод] Карусель
Аудио2:Rus; 48000Hz; 2ch; 384kbps [многоголосый перевод] Lizard Cinema Trade
Аудио3:Rus; 48000Hz; 2ch; 256kbps [двухголосый перевод] Премьер Видео (VHS)
Аудио4:Rus; 48000Hz; 2ch; 384kbps [Андрей Гаврилов]
Аудио5:Rus; 48000Hz; 2ch; 384kbps [Василий Горчаков]
Аудио6:Eng; 48000Hz; 2ch; 384kbps [оригинал]--

МИ

General
Complete name Трудная мишень\Hard.Target.1993.720p.HDTV.x264.Rus.Eng.mkv
Format : Matroska
File size : 4.81 GiB
Duration : 1h 36mn
Overall bit rate : 7 176 Kbps
Encoded date : UTC 2011-03-20 13:48:30
Writing application : mkvmerge v4.6.0 ('Still Crazy After All These Years') built on Mar 10 2011 02:50:32
Writing library : libebml v1.2.0 + libmatroska v1.1.0
Video
ID : 1
Format : AVC
Format/Info : Advanced Video Codec
Format profile : [email protected]
Format settings, CABAC : Yes
Format settings, ReFrames : 9 frames
Muxing mode : Container [email protected]
Codec ID : V_MPEG4/ISO/AVC
Duration : 1h 35mn
Bit rate : 4 857 Kbps
Nominal bit rate : 5 000 Kbps
Width : 1 280 pixels
Height : 690 pixels
Display aspect ratio : 1.855
Frame rate : 23.976 fps
Resolution : 24 bits
Colorimetry : 4:2:0
Scan type : Progressive
Bits/(Pixel*Frame) : 0.229
Stream size : 3.25 GiB (68%)
Writing library : x264 core 114 r1913 5fd3dce
Encoding settings : cabac=1 / ref=9 / deblock=1:-3:-3 / analyse=0x3:0x113 / me=umh / subme=9 / psy=1 / psy_rd=1.20:0.15 / mixed_ref=1 / me_range=24 / chroma_me=1 / trellis=2 / 8x8dct=1 / cqm=0 / deadzone=21,11 / fast_pskip=1 / chroma_qp_offset=-3 / threads=3 / sliced_threads=0 / nr=0 / decimate=1 / interlaced=0 / constrained_intra=0 / bframes=6 / b_pyramid=2 / b_adapt=2 / b_bias=0 / direct=1 / weightb=1 / open_gop=0 / weightp=2 / keyint=250 / keyint_min=23 / scenecut=40 / intra_refresh=0 / rc_lookahead=40 / rc=2pass / mbtree=1 / bitrate=5000 / ratetol=1.0 / qcomp=0.60 / qpmin=10 / qpmax=51 / qpstep=4 / cplxblur=20.0 / qblur=0.5 / vbv_maxrate=50000 / vbv_bufsize=50000 / nal_hrd=none / ip_ratio=1.40 / aq=1:1.00
Audio #1
ID : 2
Format : AC-3
Format/Info : Audio Coding 3
Codec ID : A_AC3
Duration : 1h 36mn
Bit rate mode : Constant
Bit rate : 384 Kbps
Channel(s) : 2 channels
Channel positions : L R
Sampling rate : 48.0 KHz
Stream size : 264 MiB (5%)
Title : Karusel
Language : Russian
Audio #2
ID : 3
Format : AC-3
Format/Info : Audio Coding 3
Codec ID : A_AC3
Duration : 1h 36mn
Bit rate mode : Constant
Bit rate : 384 Kbps
Channel(s) : 2 channels
Channel positions : L R
Sampling rate : 48.0 KHz
Stream size : 264 MiB (5%)
Title : Lizard Cinema Trade
Language : Russian
Audio #3
ID : 4
Format : AC-3
Format/Info : Audio Coding 3
Codec ID : A_AC3
Duration : 1h 36mn
Bit rate mode : Constant
Bit rate : 256 Kbps
Channel(s) : 2 channels
Channel positions : L R
Sampling rate : 48.0 KHz
Stream size : 176 MiB (4%)
Title : Premier Video
Language : Russian
Audio #4
ID : 5
Format : AC-3
Format/Info : Audio Coding 3
Codec ID : A_AC3
Duration : 1h 36mn
Bit rate mode : Constant
Bit rate : 384 Kbps
Channel(s) : 2 channels
Channel positions : L R
Sampling rate : 48.0 KHz
Stream size : 264 MiB (5%)
Title : Gavrilov
Language : Russian
Audio #5
ID : 6
Format : AC-3
Format/Info : Audio Coding 3
Codec ID : A_AC3
Duration : 1h 36mn
Bit rate mode : Constant
Bit rate : 384 Kbps
Channel(s) : 2 channels
Channel positions : L R
Sampling rate : 48.0 KHz
Stream size : 264 MiB (5%)
Title : Gorchakov
Language : Russian
Audio #6
ID : 7
Format : AC-3
Format/Info : Audio Coding 3
Codec ID : A_AC3
Duration : 1h 36mn
Bit rate mode : Constant
Bit rate : 384 Kbps
Channel(s) : 2 channels
Channel positions : L R
Sampling rate : 48.0 KHz
Stream size : 264 MiB (5%)
Title : Eng
Text #1
ID : 8
Format : UTF-8
Codec ID : S_TEXT/UTF8
Codec ID/Info : UTF-8 Plain Text
Title : Rus
Language : Russian
Text #2
ID : 9
Format : UTF-8
Codec ID : S_TEXT/UTF8
Codec ID/Info : UTF-8 Plain Text
Title : Eng

Скриншоты






Последний раз редактировалось: maxuz (2013-06-07 06:38), всего редактировалось 2 раз(а)

Создавать темы 06-Июн-2013 21:49

[Профиль]  [ЛС] 

maxuz ®

Стаж: 6 лет 8 месяцев

Сообщений: 55

Симпатии: 3

ребят как мне скачать тепер свои релиз чтобь сидеровать

Создавать темы 06-Июн-2013 23:26

[Профиль]  [ЛС] 

Admin

Стаж: 5 лет 9 месяцев

Сообщений: 580

Симпатии: 106

maxuz, Как создать торрент и оформить раздачу. Как встать на раздачу скаченного ранее релиза. Как закачать отдельный файл

Создавать темы 06-Июн-2013 23:50

[Профиль]  [ЛС] 

Xomid

Стаж: 6 лет 5 месяцев

Сообщений: 34

Симпатии: 4

станьте на раздачу

Создавать темы 05-Янв-2014 12:35

[Профиль]  [ЛС] 

Xomid

Стаж: 6 лет 5 месяцев

Сообщений: 34

Симпатии: 4

станьте на раздачу а сколько можно ждать вообще остался 2%

Создавать темы 06-Янв-2014 11:37

[Профиль]  [ЛС] 

Xomid

Стаж: 6 лет 5 месяцев

Сообщений: 34

Симпатии: 4

я скачал спасибо))) раздаю по полному скачайте ребята!!!

Создавать темы 07-Янв-2014 12:00

[Профиль]  [ЛС] 
Показать сообщения:    
Ответить на тему

Текущее время: 24-Окт 12:40

Часовой пояс: UTC + 5



Вы не можете начинать темы
Вы не можете отвечать на сообщения
Вы не можете редактировать свои сообщения
Вы не можете удалять свои сообщения
Вы не можете голосовать в опросах
Вы не можете прикреплять файлы к сообщениям
Вы не можете скачивать файлы