Дьявол в деталях / The Devil's in the Details (Уэймон Бун) [2013 г., триллер, H264, HDRip]

Ответить на тему
 

igor1968 ®

Стаж: 5 лет 9 месяцев

Сообщений: 366

Симпатии: 197

Дьявол в деталях / The Devil's in the Details
Год выпуска: 2013
Страна:
Жанр: триллер
Продолжительность: 01:40:19.555
Перевод: Любительский (одноголосый)
Режиссер: Уэймон Бун
В ролях: Рэй Лиотта , Эмилио Ривера , Джоэль Томпсон , Рэймонд Дж. Бэрри , Ноэль Гульеми ,
Лэйн Гаррисон , Jake Jacobson , Тина Ивлев , Артуро дель Пуэрто , Альберт Такур ...
Обычное утро обычного дня в Ногалесе, штат Аризона. Жизнь бывшего военнослужащего Томаса Конрада кардинально меняется, когда его похищают члены наркокартеля, чтобы с его помощью переправить наркотики через границу.   Премьера 12 марта 2013
Качество: HDRip
Формат: AVI
Видео кодек: H.26x
Аудио кодек: MPEG Audio
Видео: 720x304 (2.37:1), 23.976 fps, Intel ITU H.264 ~1566 kbps avg, 0.30 bit/pixel
Аудио: 48 kHz, MPEG Layer 3, 2 ch, ~256.00 kbps avg

MediaInfo

General
Complete name : Dyavol.v.detalyah.2013.HDRip.avi
Format : AVI
Format/Info : Audio Video Interleave
Format profile : OpenDML
File size : 1.28 GiB
Duration : 1h 40mn
Overall bit rate : 1 829 Kbps
Writing application : Lavf52.94.0
Video
ID : 0
Format : AVC
Format/Info : Advanced Video Codec
Format profile : [email protected]
Format settings, CABAC : Yes
Format settings, ReFrames : 2 frames
Codec ID : H264
Duration : 1h 40mn
Bit rate : 1 562 Kbps
Width : 720 pixels
Height : 304 pixels
Display aspect ratio : 2.35:1
Frame rate mode : Variable
Frame rate : 23.976 fps
Color space : YUV
Chroma subsampling : 4:2:0
Bit depth : 8 bits
Scan type : Progressive
Bits/(Pixel*Frame) : 0.298
Stream size : 1.09 GiB (85%)
Writing library : x264 core 112 r1834 a51816a
Encoding settings : cabac=1 / ref=1 / deblock=1:0:0 / analyse=0x1:0 / me=dia / subme=2 / psy=1 / psy_rd=0.00:0.00 / mixed_ref=0 / me_range=16 / chroma_me=1 / trellis=0 / 8x8dct=0 / cqm=0 / deadzone=21,11 / fast_pskip=1 / chroma_qp_offset=0 / threads=2 / sliced_threads=0 / nr=0 / decimate=1 / interlaced=0 / constrained_intra=0 / bframes=3 / b_pyramid=0 / b_adapt=1 / b_bias=0 / direct=3 / weightb=0 / open_gop=0 / weightp=2 / keyint=250 / keyint_min=25 / scenecut=40 / intra_refresh=0 / rc_lookahead=40 / rc=abr / mbtree=1 / bitrate=1562 / ratetol=1.0 / qcomp=0.60 / qpmin=10 / qpmax=51 / qpstep=4 / ip_ratio=1.41 / aq=1:1.00
Audio
ID : 1
Format : MPEG Audio
Format version : Version 1
Format profile : Layer 3
Mode : Joint stereo
Codec ID : 55
Codec ID/Hint : MP3
Duration : 1h 40mn
Bit rate mode : Constant
Bit rate : 256 Kbps
Channel(s) : 2 channels
Sampling rate : 48.0 KHz
Compression mode : Lossy
Stream size : 184 MiB (14%)
Alignment : Aligned on interleaves
Interleave, duration : 24 ms (0.58 video frame)

Скриншоты



Последний раз редактировалось: igor1968 (2013-06-07 18:37), всего редактировалось 1 раз

Создавать темы 07-Июн-2013 15:17

[Профиль]  [ЛС] 

pavel_79

Стаж: 5 лет 8 месяцев

Сообщений: 97

Симпатии: 3

настораживает одноголсное озвучка

Создавать темы 18-Июн-2013 15:25

[Профиль]  [ЛС] 
Показать сообщения:    
Ответить на тему

Текущее время: 15-Дек 15:03

Часовой пояс: UTC + 5



Вы не можете начинать темы
Вы не можете отвечать на сообщения
Вы не можете редактировать свои сообщения
Вы не можете удалять свои сообщения
Вы не можете голосовать в опросах
Вы не можете прикреплять файлы к сообщениям
Вы не можете скачивать файлы