Газетчик / The Paperboy (Ли Дэниелс / Lee Daniels) [2012, США, триллер, BDRip] Dub (НТВ+) + AVO (Карповский) + Original + subs (Rus, Eng)

Ответить на тему
 

Suxrob89 ®

Стаж: 7 лет 1 месяц

Сообщений: 933

Симпатии: 564

-Газетчик / The Paperboy- Год выпуска: 2012
Выпущено: США
Жанр: триллер
Продолжительность: 01:46:45
Перевод: Профессиональный (полное дублирование) |НТВ+|
+ Авторский (одноголосый закадровый) |А. Карповский|
+ Оригинальная звуковая дорожка
Субтитры: Русские, английские (внешние, srt*)-Режиссер: Ли Дэниелс / Lee Daniels-В ролях: Мэттью МакКонахи, Зак Эфрон, Николь Кидман, Джон Кьюсак, Мейси Грэй, Дэвид Ойелоуо, Скотт Гленн, Нед Беллами, Ниалла Гордон, Эдрик Браун-О фильме: Конец 1960-х; успешный журналист Уорд расследует дерзкое убийство влиятельного шерифа-расиста в маленьком южном городке. Его цель — освободить несправедливо осуждённого и заодно сделать вместе с коллегой из Лондона сенсационный материал. Журналистам помогает юный разносчик газет Джек — родной брат Уорда, и невероятно сексапильная блондинка Шарлотта: она влюбилась по переписке в того самого заключенного из камеры смертников. Каждому из героев есть что скрывать и чего бояться — но раскалённый воздух Юга пробуждает самые тёмные и горячие желания…- -Качество: BDRip (источник: CHDBits / Blu-ray / 1080р)
Формат: AVI
Видео: 720x304 (2.37:1), 23.976 fps, XviD build 65 ~1834 kbps avg, 0.35 bit/pixel
Аудио 1: 48 kHz, AC3 Dolby Digital, 2/0 (L,R), ~192.00 kbps avg |НТВ+|
Аудио 2: 48 kHz, AC3 Dolby Digital, 3/2 (L,C,R,l,r) + LFE ch, ~448.00 kbps avg |А. Карповский|
Аудио 3: 48 kHz, AC3 Dolby Digital, 3/2 (L,C,R,l,r) + LFE ch, ~448.00 kbps avg eng
Размер: 2236.41 MB-

Скриншоты

-

Media Info

Формат : AVI
Формат/Информация : Audio Video Interleave
Профиль формата : OpenDML
Размер файла : 2,18 Гбайт
Продолжительность : 1 ч. 46 м.
Общий поток : 2929 Кбит/сек
Название фильма : Газетчик / The Paperboy (2012) BDRip
Режиссёр : MOSFET
Жанр : триллер
Программа кодирования : VirtualDubMod 1.5.10.2 (build 2542/release)
Примечание : 04.06.13
Видео
Идентификатор : 0
Формат : MPEG-4 Visual
Профиль формата : Advanced [email protected]
Параметр BVOP формата : 1
Параметр QPel формата : Нет
Параметр GMC формата : Без точки перехода
Параметр матрицы формата : Выборочная
Идентификатор кодека : XVID
Идентификатор кодека/Подсказка : XviD
Продолжительность : 1 ч. 46 м.
Битрейт : 1817 Кбит/сек
Ширина : 720 пикселей
Высота : 304 пикселя
Соотношение сторон : 2,35:1
Частота кадров : 23,976 кадра/сек
Цветовое пространство : YUV
Субдискретизация насыщенности : 4:2:0
Битовая глубина : 8 бит
Тип развёртки : Прогрессивная
Метод сжатия : С потерями
Бит/(Пиксели*Кадры) : 0.346
Размер потока : 1,36 Гбайт (62
Библиотека кодирования : XviD 65
Аудио #1
Идентификатор : 1
Формат : AC-3
Формат/Информация : Audio Coding 3
Расширение режима : CM (complete main)
Параметр Endianness формата : Big
Идентификатор кодека : 2000
Продолжительность : 1 ч. 46 м.
Вид битрейта : Постоянный
Битрейт : 192 Кбит/сек
Каналы : 2 канала
Расположение каналов : Front: L R
Частота : 48,0 КГц
Битовая глубина : 16 бит
Метод сжатия : С потерями
Размер потока : 147 Мбайт (7
Выравнивание : Разделение по промежуткам
Продолжительность промежутка : 42 мс. (1,00 видеокадр)
Время предзагрузки промежутка : 500 мс.
Аудио #2
Идентификатор : 2
Формат : AC-3
Формат/Информация : Audio Coding 3
Расширение режима : CM (complete main)
Параметр Endianness формата : Big
Идентификатор кодека : 2000
Продолжительность : 1 ч. 46 м.
Вид битрейта : Постоянный
Битрейт : 448 Кбит/сек
Каналы : 6 каналов
Расположение каналов : Front: L C R, Side: L R, LFE
Частота : 48,0 КГц
Битовая глубина : 16 бит
Метод сжатия : С потерями
Размер потока : 342 Мбайт (15
Выравнивание : Разделение по промежуткам
Продолжительность промежутка : 42 мс. (1,00 видеокадр)
Время предзагрузки промежутка : 500 мс.
Аудио #3
Идентификатор : 3
Формат : AC-3
Формат/Информация : Audio Coding 3
Расширение режима : CM (complete main)
Параметр Endianness формата : Big
Идентификатор кодека : 2000
Продолжительность : 1 ч. 46 м.
Вид битрейта : Постоянный
Битрейт : 448 Кбит/сек
Каналы : 6 каналов
Расположение каналов : Front: L C R, Side: L R, LFE
Частота : 48,0 КГц
Битовая глубина : 16 бит
Метод сжатия : С потерями
Размер потока : 342 Мбайт (15
Выравнивание : Разделение по промежуткам
Продолжительность промежутка : 42 мс. (1,00 видеокадр)
Время предзагрузки промежутка : 500 мс.
-

Создавать темы 07-Июн-2013 22:55

[Профиль]  [ЛС] 

WDS

Стаж: 4 года 4 месяца

Сообщений: 43

Он даже сам файл не закачал с соседнего трекера и уже раздаёт ,модеры примите меры ну это уже обсурд.Дабы учится уже на своих ошибках начиная переименовать файлы ,мал по малу постеры заливать (уже не с оригинальный раздачи)но факт остаётся фактом что он простой копипастер релизов с соседнего трекера.

Создавать темы 08-Июн-2013 01:40

[Профиль]  [ЛС] 

4102492

Стаж: 4 года 7 месяцев

Сообщений: 14

Нам (большей части пользователей) разницы нет с соседнего или нет...он делает для НАС ВСЕХ доброе дело...так что СПАСИБО тебе Suxrob89 за твои труды!!!

Создавать темы 08-Июн-2013 01:57

[Профиль]  [ЛС] 

abdukarim

Стаж: 6 лет 8 месяцев

Сообщений: 144

Симпатии: 18

фильм не понравился, я так и не понял смысла, если он там был.

Создавать темы 08-Июн-2013 03:47

[Профиль]  [ЛС] 

Asadovdiyor

Стаж: 5 лет 8 месяцев

Сообщений: 192

WDS, "Не всё в этом мире продается за деньги… Кое-что бывает и на халяву!"
он ведь у тебя деньги не просит за скачку так не пофигу ли тебе откуда он достаёт главное чтоб в качестве было bx

Создавать темы 08-Июн-2013 10:13

[Профиль]  [ЛС] 

SeabiscuiT

Стаж: 4 года 6 месяцев

Сообщений: 56

Симпатии: 4

сидеры, дружненько сняли ограничение отдачи и раздаем, не жмемся...а то в чем дело, почему только 3 кб/с? так год качать можно...(((

Создавать темы 25-Июн-2013 08:31

[Профиль]  [ЛС] 

dknight

Стаж: 5 лет 7 месяцев

Сообщений: 28

SeabiscuiT, +1! Да люди будьте людьми!))

Создавать темы 25-Июн-2013 18:33

[Профиль]  [ЛС] 

nico3500

Стаж: 4 года 8 месяцев

Сообщений: 99

Симпатии: 6

Классный фильм с отличным актерским составом. Фильм реально интригует и затягивает. Однозначно качать и смотреть.

Создавать темы 27-Июн-2013 21:56

[Профиль]  [ЛС] 

SeabiscuiT

Стаж: 4 года 6 месяцев

Сообщений: 56

Симпатии: 4

рекомендую к просмотру, и пока раздаю...жалко только героиню Кидман, она все таки нашла приключения на свою...

Создавать темы 28-Июн-2013 14:33

[Профиль]  [ЛС] 

Kozma

Стаж: 4 года 8 месяцев

Сообщений: 4

Suxrob89, пораздавай, если еще не удалил.

Создавать темы 08-Фев-2014 14:08

[Профиль]  [ЛС] 
Показать сообщения:    
Ответить на тему

Текущее время: 25-Сен 00:34

Часовой пояс: UTC + 5



Вы не можете начинать темы
Вы не можете отвечать на сообщения
Вы не можете редактировать свои сообщения
Вы не можете удалять свои сообщения
Вы не можете голосовать в опросах
Вы не можете прикреплять файлы к сообщениям
Вы не можете скачивать файлы