Наруто 2 сезон 316 / Naruto Shippuuden 316 (Датэ хаятэ) [2013 г., Приключения, комедия, боевые искусства, сёнэн, HDTVRip-AVC]

Ответить на тему
 

dreamcetcher ®

Стаж: 5 лет 10 месяцев

Сообщений: 53

Симпатии: 1

Наруто 2 сезон 316 / Naruto Shippuuden 316
Год выпуска: 2013
Страна: Япония
Жанр: Приключения, комедия, боевые искусства, сёнэн
Продолжительность: 23:09
Перевод: Любительский (одноголосый)
Режиссер: Датэ хаятэ
В ролях: Накамура Тиэ / 中村千絵 — Сакура Харуно
Такэучи Дзюнко / 竹内順子 — Наруто Узумаки
Сугияма Нориаки / 杉山紀彰 — Саске Учиха
Исида Акира / 石田彰 — Гаара
Иноуэ Кадзухико / 井上和彦 — Какаши Хатаке
Кудзира / くじら — Орочимару
Канна Нобутоси / 神奈延年 — Кабуто Якуси
Кацуки Масако / 勝生真沙子 — Цунадэ
Масукава Ёити / 増川洋一 — Рок Ли
Мидзуки Нана / 水樹奈々 — Хината Хьюга
Морикубо Сётаро / 森久保祥太郎 — Шикамару Нара
Оцука Хотю / 大塚芳忠 — Джирайя
Сибата Хидэкацу / 柴田秀勝 — Третий Хокаге
Исикава Хидэо / 石川英郎 — Итачи Учиха
Тотика Койти / 遠近孝一 — Нейджи Хьюга
Описание: Эпизод "Союзные войска Эдо Тэнсэй"
Кабуто понимает, что потерял слишком много своих пешек и ему нужно делать следующий ход. Он вспоминает, как они с Орочимару искали ДНК легендарных шиноби. К небольшому отряду из Альянса примыкают двое печатников. Они приносят с собой запечатанного шиноби, использовавшего магнитный элемент. Все удивляются, как им удалось его запечатать, но они рассказывают, что им помог Наруто. Вдруг они обнаруживают воскрешённого на холме. Он призывает множество воскрешённых ниндзя. Отряд понимает, что это засада. Они запрашивают подкрепление у штаба. Тем временем воскрешённые собираются использовать численное преимущество и забрать запечатанного Тороя, владельца магнитного элемента. Однако все быстро понимают, что они простые генины и чунины. Появляется подкрепление. Вдруг отряды начинают узнавать в воскрешённых своих родственников. Те начинают расспрашивать о жёнах, детях, родственниках. Вдруг один из воскрешённых использует некую технику, которая создаёт туман на поле боя, а Торуне вместе с тремя другими воскрешёнными направляется за запечатанным Тороем. Кабуто вспоминает свои неудачные попытки воскресить знаменитых шиноби, которые теперь стали его пешками. Торуне со своим небольшим отрядом обнаруживают запечатанного Третьего Райкаге. Им почти удаётся снять с него печать, потеряв одного воскрешёного, но сюда поспевает отряд Темари и прерывает их попытки, запечатав одного из них. Темари узнаёт в одном из воскрешённых своего друга детства. Тот признаётся ей в любви и позволяет себя запечатать. Остаётся только Торуне, но он оказывается клоном.
Качество: HDTVRip-AVC
Формат: MKV
Видео кодек: Другой MPEG4
Аудио кодек: MPEG Audio
Видео: AVC,1280x720,1776Kbs,23.976fps
Аудио: MPEG Audio,256Kbps,44.1KHz,2ch

MediaInfo

General
Unique ID : 238687182244944362693222846762785594989 (0xB3917AAA68093AB097363FA277225E6D)
Complete name : E:\Films\[Naruto-Grand.Ru] Naruto Shippuuden - 316 [Rus Dub] [720p].mkv
Format : Matroska
Format version : Version 4 / Version 2
File size : 336 MiB
Duration : 23mn 9s
Overall bit rate : 2 027 Kbps
Encoded date : UTC 2013-06-06 19:27:47
Writing application : mkvmerge v6.0.0 ('Coming Up For Air') built on Jan 20 2013 09:52:00
Writing library : libebml v1.3.0 + libmatroska v1.4.0
Video
ID : 1
Format : AVC
Format/Info : Advanced Video Codec
Format profile : [email protected]
Format settings, CABAC : Yes
Format settings, ReFrames : 6 frames
Codec ID : V_MPEG4/ISO/AVC
Duration : 23mn 9s
Bit rate : 1 776 Kbps
Width : 1 280 pixels
Height : 720 pixels
Display aspect ratio : 16:9
Frame rate mode : Constant
Frame rate : 23.976 fps
Color space : YUV
Chroma subsampling : 4:2:0
Bit depth : 8 bits
Scan type : Progressive
Bits/(Pixel*Frame) : 0.080
Stream size : 287 MiB (85%)
Writing library : x264 core 120 r2120 0c7dab9
Encoding settings : cabac=1 / ref=6 / deblock=1:1:1 / analyse=0x3:0x113 / me=umh / subme=8 / psy=1 / psy_rd=0.40:0.00 / mixed_ref=1 / me_range=16 / chroma_me=1 / trellis=1 / 8x8dct=1 / cqm=0 / deadzone=21,11 / fast_pskip=1 / chroma_qp_offset=-2 / threads=4 / sliced_threads=0 / nr=0 / decimate=1 / interlaced=0 / bluray_compat=0 / constrained_intra=0 / bframes=3 / b_pyramid=2 / b_adapt=2 / b_bias=0 / direct=3 / weightb=1 / open_gop=0 / weightp=2 / keyint=250 / keyint_min=23 / scenecut=40 / intra_refresh=0 / rc_lookahead=50 / rc=2pass / mbtree=1 / bitrate=1776 / ratetol=1.0 / qcomp=0.60 / qpmin=0 / qpmax=69 / qpstep=4 / cplxblur=20.0 / qblur=0.5 / vbv_maxrate=3552 / vbv_bufsize=8880 / nal_hrd=none / ip_ratio=1.40 / aq=1:0.60
Default : Yes
Forced : No
Audio
ID : 2
Format : MPEG Audio
Format version : Version 1
Format profile : Layer 3
Codec ID : A_MPEG/L3
Codec ID/Hint : MP3
Duration : 23mn 9s
Bit rate mode : Constant
Bit rate : 256 Kbps
Channel(s) : 2 channels
Sampling rate : 44.1 KHz
Compression mode : Lossy
Stream size : 42.4 MiB (13%)
Default : Yes
Forced : No

Скриншоты




Создавать темы 07-Июн-2013 22:56

[Профиль]  [ЛС] 

Fuzuliy

Стаж: 5 лет 7 месяцев

Сообщений: 202

Симпатии: 12

Слухи говорят о том что филлеры будут весь июнь-июль


Последний раз редактировалось: Fuzuliy (2013-06-08 16:17), всего редактировалось 1 раз

Создавать темы 07-Июн-2013 23:10

[Профиль]  [ЛС] 

Актам Денмухаммадиев

Стаж: 4 года 8 месяцев

Сообщений: 113

ну ещё 2-3 серии, это же НЕМНОГО pc

Создавать темы 08-Июн-2013 15:37

[Профиль]  [ЛС] 

dreamcetcher ®

Стаж: 5 лет 10 месяцев

Сообщений: 53

Симпатии: 1

Модераторы почему? статус раздачи не проверено

Создавать темы 10-Июн-2013 17:12

[Профиль]  [ЛС] 
Показать сообщения:    
Ответить на тему

Текущее время: 24-Окт 09:12

Часовой пояс: UTC + 5



Вы не можете начинать темы
Вы не можете отвечать на сообщения
Вы не можете редактировать свои сообщения
Вы не можете удалять свои сообщения
Вы не можете голосовать в опросах
Вы не можете прикреплять файлы к сообщениям
Вы не можете скачивать файлы