Охотники на ведьм / Hansel & Gretel: Witch Hunters (Томми Виркола) [2013, США, Германия, Ужасы, Фэнтези, Боевик, HDRip][Лицензия]

Ответить на тему
 

Suxrob89 ®

Стаж: 7 лет 3 месяца

Сообщений: 933

Симпатии: 564

-Охотники на ведьм / Hansel & Gretel: Witch Hunters-«Новый поворот старой истории»- Страна: США, Германия
Жанр: Ужасы, Фэнтези, Боевик
Год выпуска: 2013
Продолжительность: 01:27:58
Перевод: Профессиональный (дублированный) [Лицензия]
Cубтитры: нет-Режиссер: Томми Виркола-В ролях: Джереми Реннер, Джемма Артертон, Фамке Янссен, Зои Белл, Петер Стормаре, Томас Манн, Ингрид Болсай Бердал, Робин Аткин Даунс, Дерек Мирс, Моник Гэндертон-Описание: Едва не погибнув в лапах ужасной ведьмы, Гензель и Гретель стали только сильнее. Одержимые местью, они ведут отчаянную борьбу со злом, даже не подозревая, что их поджидает нечто куда более опасное… собственное прошлое…- -Качество видео: HDRip
Формат видео: AVI
Видео: 720x304 (2.37:1), 23.976 fps, XviD build 73 ~1897 kbps avg, 0.36 bit/pixel
Аудио: 48 kHz, AC3 Dolby Digital, 3/2 (L,C,R,l,r) + LFE ch, ~448.00 kbps avg

Media Info

F:\Ohotniki.na.vedm.2013_HDRip.avi
General
Complete name : F:\Ohotniki.na.vedm.2013_HDRip.avi
Format : AVI
Format/Info : Audio Video Interleave
File size : 1.45 GiB
Duration : 1h 27mn
Overall bit rate : 2 355 Kbps
Writing application : VirtualDubMod 1.5.10.2 (build 2540/release)
Writing library : VirtualDubMod build 2540/release
Video #0
ID : 0
Format : MPEG-4 Visual
Format profile : Advanced [email protected]
Format settings, BVOP : 1
Format settings, QPel : No
Format settings, GMC : No warppoints
Format settings, Matrix : Custom
Codec ID : XVID
Codec ID/Hint : XviD
Duration : 1h 27mn
Bit rate : 1 898 Kbps
Width : 720 pixels
Height : 304 pixels
Display aspect ratio : 2.35:1
Frame rate : 23.976 fps
Color space : YUV
Chroma subsampling : 4:2:0
Bit depth : 8 bits
Scan type : Progressive
Compression mode : Lossy
Bits/(Pixel*Frame) : 0.362
Stream size : 1.17 GiB (81%)
Writing library : XviD 73
Audio #1
ID : 1
Format : AC-3
Format/Info : Audio Coding 3
Mode extension : CM (complete main)
Format settings, Endianness : Big
Codec ID : 2000
Duration : 1h 27mn
Bit rate mode : Constant
Bit rate : 448 Kbps
Channel(s) : 6 channels
Channel positions : Front: L C R, Side: L R, LFE
Sampling rate : 48.0 KHz
Bit depth : 16 bits
Compression mode : Lossy
Stream size : 282 MiB (19%)
Alignment : Split accross interleaves
Interleave, duration : 42 ms (1.00 video frame)
Interleave, preload duration : 500 ms

Скриншот c названием фильма

Скриншоты

Создавать темы 08-Июн-2013 06:34

[Профиль]  [ЛС] 

volume

Стаж: 7 лет 2 месяца

Сообщений: 228

Симпатии: 11

О... наконец-то лицуха. СПС тебе Suxrob89 давно ждал.

Создавать темы 08-Июн-2013 10:10

[Профиль]  [ЛС] 

nazar9988

Стаж: 5 лет 7 месяцев

Сообщений: 18

раздайте ребята 100 мб осталось

Создавать темы 23-Ноя-2013 11:33

[Профиль]  [ЛС] 

gluk

Стаж: 4 года 10 месяцев

Сообщений: 4

Блин дайте скорости .!!!!

Создавать темы 24-Янв-2014 03:15

[Профиль]  [ЛС] 

Magister

Стаж: 5 лет 10 месяцев

Сообщений: 14

Симпатии: 1

прибавти скораст ппц вы уже тут

Создавать темы 14-Май-2014 15:22

[Профиль]  [ЛС] 

IceWolf

Стаж: 7 лет 10 месяцев

Сообщений: 21

помогите скачать

Создавать темы 26-Май-2014 16:35

[Профиль]  [ЛС] 

IceWolf

Стаж: 7 лет 10 месяцев

Сообщений: 21

сколько еще жать

Создавать темы 26-Май-2014 16:36

[Профиль]  [ЛС] 

IceWolf

Стаж: 7 лет 10 месяцев

Сообщений: 21

сколько еще ждать

Создавать темы 26-Май-2014 16:37

[Профиль]  [ЛС] 
Показать сообщения:    
Ответить на тему

Текущее время: 20-Ноя 02:29

Часовой пояс: UTC + 5



Вы не можете начинать темы
Вы не можете отвечать на сообщения
Вы не можете редактировать свои сообщения
Вы не можете удалять свои сообщения
Вы не можете голосовать в опросах
Вы не можете прикреплять файлы к сообщениям
Вы не можете скачивать файлы