Наша Russia Все Сезоны ( 5 сезонов ) из (5) [2008 г., Ток-Шоу Комедия Пародия Семейный, TVRip]

Ответить на тему
 

Pika4u ®

Стаж: 4 года 7 месяцев

Сообщений: 32

Симпатии: 7

Наша Russia Все Сезоны ( 5 сезонов ) из (5)
Год выпуска: 2008-2012
Страна: Россия
Жанр: Ток-Шоу Комедия Пародия Семейный
Продолжительность: 00:20:18
Режиссер: Петр Буслов
В Главных Ролях: Миша Галустян, Сергей Светлаков и др.
Описание: Мы великие люди из великой страны! Только наша страна настолько демократична, что выборы мэра столицы можно посмотреть в прямом эфире. Только мы живем в стране, омываемой двенадцатью морями и тремя океанами, но ездим отдыхать в Турцию. Вам еще не стыдно за ваш отпуск? Мы это исправим! Гости из солнечного Нижнего Тагила и другие пока неизвестные герои мегапопулярного скетчкома – лучший подарок, который зрители найдут в эфире ТНТ.
Тут собраны все полные 5 сезона культового шутливого сериала «НАША РАША» который, мыслю, не нуждается в каком или доп описании и объяснении. Просто глядите его и Ваша жизнь станет чуточку веселее!
Качество: TVRip
Формат: AVI
Видео кодек: XviD
Аудио кодек: MP3
Видео: Avi (Xvid) 720x400 1236kb/s 25.00fps 640x352 1308kb/s
Аудио: Audio: MP3 44100Hz stereo 128kbps

Скриншоты



Медиа Инфо

General
Complete name : X:\Сериалы Разные\Наша Russia ( Комедия Юмор )\Наша Russia Все Сезоны\Season_01\Nasha.Russia.1_Seriya_01.avi
Format : AVI
Format/Info : Audio Video Interleave
File size : 180 MiB
Duration : 20mn 18s
Overall bit rate : 1 236 Kbps
Writing application : MEncoder SVN-r33883(20110719-gcc4.5.2)
Writing library : MPlayer
Video
ID : 0
Format : MPEG-4 Visual
Format profile : Advanced [email protected]
Format settings, BVOP : 2
Format settings, QPel : No
Format settings, GMC : No warppoints
Format settings, Matrix : Default (H.263)
Codec ID : XVID
Codec ID/Hint : XviD
Duration : 20mn 18s
Bit rate : 1 096 Kbps
Width : 720 pixels
Height : 400 pixels
Display aspect ratio : 4:3
Original display aspect ratio : 16:9
Frame rate : 25.000 fps
Color space : YUV
Chroma subsampling : 4:2:0
Bit depth : 8 bits
Scan type : Progressive
Compression mode : Lossy
Bits/(Pixel*Frame) : 0.152
Stream size : 159 MiB (89%)
Writing library : XviD 1.2.1 (UTC 2008-12-04)
Audio
ID : 1
Format : MPEG Audio
Format version : Version 1
Format profile : Layer 3
Mode : Joint stereo
Mode extension : MS Stereo
Codec ID : 55
Codec ID/Hint : MP3
Duration : 20mn 18s
Bit rate mode : Constant
Bit rate : 128 Kbps
Channel(s) : 2 channels
Sampling rate : 44.1 KHz
Compression mode : Lossy
Delay relative to video : 40ms
Stream size : 18.6 MiB (10%)
Alignment : Aligned on interleaves
Interleave, duration : 26 ms (0.65 video frame)
Interleave, preload duration : 522 ms

Медиа Инфо 2 сезон

General
Complete name : X:\Сериалы Разные\Наша Russia ( Комедия Юмор )\Наша Russia Все Сезоны\Season_02\Nasha.Russia.2_Seriya_01.avi
Format : AVI
Format/Info : Audio Video Interleave
File size : 198 MiB
Duration : 20mn 44s
Overall bit rate : 1 333 Kbps
Writing application : MEncoder SVN-r33883(20110719-gcc4.5.2)
Writing library : MPlayer
Video
ID : 0
Format : MPEG-4 Visual
Format profile : Advanced [email protected]
Format settings, BVOP : 2
Format settings, QPel : No
Format settings, GMC : No warppoints
Format settings, Matrix : Default (H.263)
Codec ID : XVID
Codec ID/Hint : XviD
Duration : 20mn 44s
Bit rate : 1 193 Kbps
Width : 720 pixels
Height : 400 pixels
Display aspect ratio : 16:9
Original display aspect ratio : 16:9
Frame rate : 25.000 fps
Color space : YUV
Chroma subsampling : 4:2:0
Bit depth : 8 bits
Scan type : Progressive
Compression mode : Lossy
Bits/(Pixel*Frame) : 0.166
Stream size : 177 MiB (89%)
Writing library : XviD 1.2.1 (UTC 2008-12-04)
Audio
ID : 1
Format : MPEG Audio
Format version : Version 1
Format profile : Layer 3
Mode : Joint stereo
Mode extension : MS Stereo
Codec ID : 55
Codec ID/Hint : MP3
Duration : 20mn 44s
Bit rate mode : Constant
Bit rate : 128 Kbps
Channel(s) : 2 channels
Sampling rate : 44.1 KHz
Compression mode : Lossy
Delay relative to video : 40ms
Stream size : 19.0 MiB (10%)
Alignment : Aligned on interleaves
Interleave, duration : 26 ms (0.65 video frame)
Interleave, preload duration : 522 ms
Writing library : LAME3.98.4

Мд 3-Сезон

General
Complete name : X:\Сериалы Разные\Наша Russia ( Комедия Юмор )\Наша Russia Все Сезоны\Season_03\Nasha.Russia.3_Seriya_01.avi
Format : AVI
Format/Info : Audio Video Interleave
File size : 215 MiB
Duration : 22mn 29s
Overall bit rate : 1 334 Kbps
Writing application : MEncoder SVN-r33883(20110719-gcc4.5.2)
Writing library : MPlayer
Video
ID : 0
Format : MPEG-4 Visual
Format profile : Advanced [email protected]
Format settings, BVOP : 2
Format settings, QPel : No
Format settings, GMC : No warppoints
Format settings, Matrix : Default (H.263)
Codec ID : XVID
Codec ID/Hint : XviD
Duration : 22mn 29s
Bit rate : 1 194 Kbps
Width : 640 pixels
Height : 352 pixels
Display aspect ratio : 16:9
Original display aspect ratio : 16:9
Frame rate : 25.000 fps
Color space : YUV
Chroma subsampling : 4:2:0
Bit depth : 8 bits
Scan type : Progressive
Compression mode : Lossy
Bits/(Pixel*Frame) : 0.212
Stream size : 192 MiB (89%)
Writing library : XviD 1.2.1 (UTC 2008-12-04)
Audio
ID : 1
Format : MPEG Audio
Format version : Version 1
Format profile : Layer 3
Mode : Joint stereo
Mode extension : MS Stereo
Codec ID : 55
Codec ID/Hint : MP3
Duration : 22mn 29s
Bit rate mode : Constant
Bit rate : 128 Kbps
Channel(s) : 2 channels
Sampling rate : 44.1 KHz
Compression mode : Lossy
Delay relative to video : 40ms
Stream size : 20.6 MiB (10%)
Alignment : Aligned on interleaves
Interleave, duration : 26 ms (0.65 video frame)
Interleave, preload duration : 522 ms
Writing library : LAME3.98.4

Мд 4-Сезон

General
Complete name : X:\Сериалы Разные\Наша Russia ( Комедия Юмор )\Наша Russia Все Сезоны\Season_04\Nasha.Russia.4_Seriya_01.avi
Format : AVI
Format/Info : Audio Video Interleave
File size : 221 MiB
Duration : 23mn 4s
Overall bit rate : 1 339 Kbps
Writing application : MEncoder SVN-r33883(20110719-gcc4.5.2)
Writing library : MPlayer
Video
ID : 0
Format : MPEG-4 Visual
Format profile : Advanced [email protected]
Format settings, BVOP : 2
Format settings, QPel : No
Format settings, GMC : No warppoints
Format settings, Matrix : Default (H.263)
Codec ID : XVID
Codec ID/Hint : XviD
Duration : 23mn 4s
Bit rate : 1 199 Kbps
Width : 640 pixels
Height : 352 pixels
Display aspect ratio : 16:9
Original display aspect ratio : 16:9
Frame rate : 25.000 fps
Color space : YUV
Chroma subsampling : 4:2:0
Bit depth : 8 bits
Scan type : Progressive
Compression mode : Lossy
Bits/(Pixel*Frame) : 0.213
Stream size : 198 MiB (90%)
Writing library : XviD 1.2.1 (UTC 2008-12-04)
Audio
ID : 1
Format : MPEG Audio
Format version : Version 1
Format profile : Layer 3
Mode : Joint stereo
Mode extension : MS Stereo
Codec ID : 55
Codec ID/Hint : MP3
Duration : 23mn 4s
Bit rate mode : Constant
Bit rate : 128 Kbps
Channel(s) : 2 channels
Sampling rate : 44.1 KHz
Compression mode : Lossy
Delay relative to video : 40ms
Stream size : 21.1 MiB (10%)
Alignment : Aligned on interleaves
Interleave, duration : 26 ms (0.65 video frame)
Interleave, preload duration : 522 ms
Writing library : LAME3.98.4

Мд 5-Сезон

General
Complete name : X:\Сериалы Разные\Наша Russia ( Комедия Юмор )\Наша Russia Все Сезоны\Season_05\Nasha.Russia.5_Seriya_01.avi
Format : AVI
Format/Info : Audio Video Interleave
File size : 190 MiB
Duration : 16mn 12s
Overall bit rate : 1 643 Kbps
Writing application : VirtualDubMod 1.5.10.2 (build 2540/release)
Writing library : VirtualDub build 30009/release
Video
ID : 0
Format : MPEG-4 Visual
Format profile : Advanced [email protected]
Format settings, BVOP : 2
Format settings, QPel : No
Format settings, GMC : No warppoints
Format settings, Matrix : Default (MPEG)
Muxing mode : Packed bitstream
Codec ID : XVID
Codec ID/Hint : XviD
Duration : 16mn 12s
Bit rate : 1 505 Kbps
Width : 704 pixels
Height : 400 pixels
Display aspect ratio : 16:9
Frame rate : 25.000 fps
Color space : YUV
Chroma subsampling : 4:2:0
Bit depth : 8 bits
Scan type : Progressive
Compression mode : Lossy
Bits/(Pixel*Frame) : 0.214
Stream size : 174 MiB (92%)
Writing library : XviD 1.0.3 (UTC 2004-12-20)
Audio
ID : 1
Format : MPEG Audio
Format version : Version 1
Format profile : Layer 3
Mode : Joint stereo
Mode extension : MS Stereo
Codec ID : 55
Codec ID/Hint : MP3
Duration : 16mn 12s
Bit rate mode : Constant
Bit rate : 128 Kbps
Channel(s) : 2 channels
Sampling rate : 48.0 KHz
Compression mode : Lossy
Stream size : 14.8 MiB (8%)
Alignment : Aligned on interleaves
Interleave, duration : 40 ms (1.00 video frame)
Interleave, preload duration : 504 ms
Writing library : LAME3.90.3ЄЄЄЄЄЄЄЄЄЄ


Последний раз редактировалось: Pika4u (2013-06-10 20:01), всего редактировалось 3 раз(а)

Создавать темы 08-Июн-2013 15:26

[Профиль]  [ЛС] 

Pika4u ®

Стаж: 4 года 7 месяцев

Сообщений: 32

Симпатии: 7

Скорость Отдачи от 500кб++

Создавать темы 08-Июн-2013 15:27

[Профиль]  [ЛС] 

Fuzuliy

Стаж: 5 лет 9 месяцев

Сообщений: 202

Симпатии: 12

Создавать темы 23-Авг-2013 13:12

[Профиль]  [ЛС] 

samud

Стаж: 5 лет 7 месяцев

Сообщений: 108

Симпатии: 24

братиш раздавать будешь или нет

Создавать темы 04-Сен-2013 12:32

[Профиль]  [ЛС] 

najmiddin_87

Стаж: 5 лет 2 месяца

Сообщений: 8

Симпатии: 2

скорости прибавьте пожалуйста!

Создавать темы 11-Янв-2014 21:34

[Профиль]  [ЛС] 

Nirvana

Стаж: 6 лет 2 месяца

Сообщений: 26

Симпатии: 4

Не с 2008, а с 2006 в эфире.

Создавать темы 24-Июн-2014 17:46

[Профиль]  [ЛС] 

A31013

Стаж: 5 лет 2 месяца

Сообщений: 39

Симпатии: 9

супер спасибо шикарно++++

Создавать темы 11-Авг-2014 07:34

[Профиль]  [ЛС] 
Показать сообщения:    
Ответить на тему

Текущее время: 18-Дек 10:13

Часовой пояс: UTC + 5



Вы не можете начинать темы
Вы не можете отвечать на сообщения
Вы не можете редактировать свои сообщения
Вы не можете удалять свои сообщения
Вы не можете голосовать в опросах
Вы не можете прикреплять файлы к сообщениям
Вы не можете скачивать файлы