Серебряный водопад / Silver Falls (Бретт Доноху) [2013 г., ужасы, триллер, WEB-DLRip]

Ответить на тему
 

igor1968 ®

Стаж: 5 лет 7 месяцев

Сообщений: 366

Симпатии: 197

Серебряный водопад / Silver Falls«Twin girls haunt a new girl in town to steer her down the path to the right killer.» Год выпуска: 2013
Страна:
Жанр: ужасы, триллер
Продолжительность: 01:36:05.134
Перевод: Профессиональный (одноголосый)
Режиссер: Бретт Доноху
В ролях: Эрик Авари , Стив Бачич , Джеймс С. Бёрнс , James Cavlo , Аликс Гиттер ,
Тадж Келли , Джеймс Ральф , Джейд Рэмси , Никита Рэмси , Тара Вествуд ...
Маленькому городку не дают покоя убитые сёстры-близняшки. Юная Джордан решает найти убийцу девочек и помочь невиновному человеку, которого посадили в тюрьму. Вот только убийца совсем рядом и не тот кем кажется.-Премьера 28 мая 2013-  Качество: WEB-DLRip
Формат: AVI
Видео кодек: XviD
Аудио кодек: AC3
Видео: 720x400 (1.80:1), 23.976 fps, XviD build 50 ~1643 kbps avg, 0.24 bit/pixel
Аудио: 48 kHz, AC3 Dolby Digital, 3/2 (L,C,R,l,r) + LFE ch, ~384.00 kbps avg

MediaInfo

General
Complete name : D:\Serebryanyi.vodopad.2013.L2.WEB-DLRip.1400Mb.avi
Format : AVI
Format/Info : Audio Video Interleave
File size : 1.37 GiB
Duration : 1h 36mn
Overall bit rate : 2 037 Kbps
Writing application : VirtualDubMod 1.5.10.3 | www.virtualdub-fr.org || (build 2550/release)
Writing library : VirtualDubMod build 2550/release
Video
ID : 0
Format : MPEG-4 Visual
Format profile : Advanced [email protected]
Format settings, BVOP : 2
Format settings, QPel : No
Format settings, GMC : No warppoints
Format settings, Matrix : Custom
Codec ID : XVID
Codec ID/Hint : XviD
Duration : 1h 36mn
Bit rate : 1 564 Kbps
Width : 720 pixels
Height : 400 pixels
Display aspect ratio : 16:9
Frame rate : 23.976 fps
Color space : YUV
Chroma subsampling : 4:2:0
Bit depth : 8 bits
Scan type : Progressive
Compression mode : Lossy
Bits/(Pixel*Frame) : 0.226
Stream size : 1.05 GiB (77%)
Writing library : XviD 1.2.1 (UTC 2008-12-04)
Audio
ID : 1
Format : AC-3
Format/Info : Audio Coding 3
Mode extension : CM (complete main)
Format settings, Endianness : Big
Codec ID : 2000
Duration : 1h 36mn
Bit rate mode : Constant
Bit rate : 384 Kbps
Channel(s) : 6 channels
Channel positions : Front: L C R, Side: L R, LFE
Sampling rate : 48.0 KHz
Bit depth : 16 bits
Compression mode : Lossy
Stream size : 264 MiB (19%)
Alignment : Split accross interleaves

Скриншоты




Создавать темы 08-Июн-2013 17:35

[Профиль]  [ЛС] 

bek33

Стаж: 5 лет 7 месяцев

Сообщений: 45

Симпатии: 5

Когда раздача будет? Кто нибудь смотрел?

Создавать темы 08-Июн-2013 18:25

[Профиль]  [ЛС] 

ZeroX

Стаж: 5 лет 6 месяцев

Сообщений: 146

Симпатии: 3

Перевод: Профессиональный (одноголосый)
Кто переводчик? Скорее Любительский

Создавать темы 08-Июн-2013 18:51

[Профиль]  [ЛС] 

igor1968 ®

Стаж: 5 лет 7 месяцев

Сообщений: 366

Симпатии: 197

Скриншоты

Создавать темы 08-Июн-2013 18:51

[Профиль]  [ЛС] 

igor1968 ®

Стаж: 5 лет 7 месяцев

Сообщений: 366

Симпатии: 197

Когда раздача будет? Кто нибудь смотрел?

Скриншоты

Создавать темы 08-Июн-2013 19:01

[Профиль]  [ЛС] 
Показать сообщения:    
Ответить на тему

Текущее время: 18-Окт 10:42

Часовой пояс: UTC + 5



Вы не можете начинать темы
Вы не можете отвечать на сообщения
Вы не можете редактировать свои сообщения
Вы не можете удалять свои сообщения
Вы не можете голосовать в опросах
Вы не можете прикреплять файлы к сообщениям
Вы не можете скачивать файлы