Могила светлячков / Grave of the Fireflies / Hotaru no Haka [Movie] [Без хардсаба] [RUS(int), JAP+SUB] [1988 г., драма, военный, BDRip-AVC]

Ответить на тему
 

pbyeh ®

Стаж: 5 лет 5 месяцев

Сообщений: 33

Симпатии: 2

Могила светлячков / Grave of the Fireflies / Hotaru no Haka Страна: Япония
Год выпуска: 1988
Жанр: драма, военный
Тип: Movie
Продолжительность: 01:28:32
Режиссер: Исао Такахата
Студия:
Описание: Последние дни Второй Мировой войны. Американская авиация бомбит беззащитные японские города. В водоворот людского каждодневного кошмара попадают 14-летнии Сэйта и его сестренка Сэцуко. Понеся самую горькую утрату — потерю близких, они остались совсем одни. Юный мальчик в одночасье становится взрослым, столкнувшись с жестокостью мира. Он осознаёт, что от него зависит жизнь его маленькой сестры.
Укрывшись в заброшенном убежище, Сэйта и Сэцуко пытаются выжить, положившись только на свои силы. И пусть в глазах смертоносный огонь в небе — всего лишь огоньки светлячков, жестокая война не щадит даже невинные детские души, вынося им свой беспощадный приговор…
Автор рипа: Deep Fusion
Качество: BDRip-AVC
Тип релиза: Без хардсаба
Формат видео: MKV
Видео: 1024x552 (1.85:1), 23.976 fps, x264@L4.1 ~3476 kbps avg, 0.256 bit/pixel
Аудио #1: 48 kHz, AC3 Dolby Digital, 2/0 (L,R) ch, ~192 kbps avg |Многоголосый закадровый, Омикрон|
Аудио #2: 48 kHz, AC3 Dolby Digital, 2/0 (L,R) ch, ~192 kbps avg |Одноголосый закадровый, Ю. Сербин (поздний)|
Аудио #3: 48 kHz, AC3, 3/2 (L,C,R,l,r) + LFE ch, ~448.00 kbps avg |Одноголосый закадровый, R5, МС Еntertainment, Ю. Сербин (поздний)|
Аудио #4: 48 kHz, AC3 Dolby Digital, 2/0 (L,R) ch, ~192 kbps avg Оригинальная звуковая дорожка
Аудио #5: 48 kHz, AC3 Dolby Digital, 2/0 (L,R) ch, ~192 kbps avg |Одноголосый закадровый, Ю. Сербин (ранний)| (отдельно)
Субтитры #1: Русские (полные, МС Entertainment)
Субтитры #2: Английские

Media Info

General
Unique ID : 247175077515125559758592639594953702371 (0xB9F4303658B3A87EA2B433DEAF83FBE3)
Complete name : D:\Mogila.Svetlyachkov.1988.BDRip.H264.AC3\Mogila.Svetlyachkov.1988.BDRip.H264.AC3.mkv
Format : Matroska
Format version : Version 2
File size : 2.84 GiB
Duration : 1h 28mn
Overall bit rate : 4 595 Kbps
Encoded date : UTC 2012-09-21 14:56:28
Writing application : mkvmerge v5.5.0 ('Healer') built on Apr 6 2012 21:43:24
Writing library : libebml v1.2.3 + libmatroska v1.3.0
Video
ID : 1
Format : AVC
Format/Info : Advanced Video Codec
Format profile : High@L4.1
Format settings, CABAC : Yes
Format settings, ReFrames : 9 frames
Codec ID : V_MPEG4/ISO/AVC
Duration : 1h 28mn
Bit rate : 3 479 Kbps
Width : 1 024 pixels
Height : 552 pixels
Display aspect ratio : 1.85:1
Frame rate mode : Constant
Frame rate : 23.976 fps
Color space : YUV
Chroma subsampling : 4:2:0
Bit depth : 8 bits
Scan type : Progressive
Bits/(Pixel*Frame) : 0.257
Stream size : 2.15 GiB (76%)
Title : Могила светлячков / Grave of the Fireflies / Hotaru no Haka (1988) BDRip-AVC | Deep Fusion
Writing library : x264 core 125 r2200 999b753
Encoding settings : cabac=1 / ref=9 / deblock=1:-3:-3 / analyse=0x3:0x113 / me=umh / subme=11 / psy=1 / psy_rd=1.05:0.08 / mixed_ref=1 / me_range=48 / chroma_me=1 / trellis=2 / 8x8dct=1 / cqm=0 / deadzone=21,11 / fast_pskip=0 / chroma_qp_offset=-5 / threads=6 / lookahead_threads=1 / sliced_threads=0 / nr=0 / decimate=1 / interlaced=0 / bluray_compat=0 / constrained_intra=0 / bframes=12 / b_pyramid=2 / b_adapt=2 / b_bias=0 / direct=1 / weightb=1 / open_gop=0 / weightp=2 / keyint=240 / keyint_min=23 / scenecut=40 / intra_refresh=0 / rc_lookahead=60 / rc=crf / mbtree=0 / crf=17.0 / qcomp=0.60 / qpmin=10 / qpmax=69 / qpstep=4 / vbv_maxrate=62500 / vbv_bufsize=50000 / crf_max=0.0 / nal_hrd=none / ip_ratio=1.40 / pb_ratio=1.30 / aq=1:0.80
Language : Japanese
Default : Yes
Forced : No
Audio #1
ID : 2
Format : AC-3
Format/Info : Audio Coding 3
Mode extension : CM (complete main)
Format settings, Endianness : Big
Codec ID : A_AC3
Duration : 1h 28mn
Bit rate mode : Constant
Bit rate : 192 Kbps
Channel(s) : 2 channels
Channel positions : Front: L R
Sampling rate : 48.0 KHz
Bit depth : 16 bits
Compression mode : Lossy
Stream size : 122 MiB (4%)
Title : Многоголосый закадровый, Омикрон
Language : Russian
Default : Yes
Forced : No
Audio #2
ID : 3
Format : AC-3
Format/Info : Audio Coding 3
Mode extension : CM (complete main)
Format settings, Endianness : Big
Codec ID : A_AC3
Duration : 1h 28mn
Bit rate mode : Constant
Bit rate : 192 Kbps
Channel(s) : 2 channels
Channel positions : Front: L R
Sampling rate : 48.0 KHz
Bit depth : 16 bits
Compression mode : Lossy
Stream size : 122 MiB (4%)
Title : Одноголосый закадровый, Ю. Сербин (поздний)
Language : Russian
Default : No
Forced : No
Audio #3
ID : 4
Format : AC-3
Format/Info : Audio Coding 3
Mode extension : CM (complete main)
Format settings, Endianness : Big
Codec ID : A_AC3
Duration : 1h 28mn
Bit rate mode : Constant
Bit rate : 448 Kbps
Channel(s) : 6 channels
Channel positions : Front: L C R, Side: L R, LFE
Sampling rate : 48.0 KHz
Bit depth : 16 bits
Compression mode : Lossy
Stream size : 284 MiB (10%)
Title : Одноголосый закадровый, R5, МС Еntertainment, Ю. Сербин (поздний)
Language : Russian
Default : No
Forced : No
Audio #4
ID : 5
Format : AC-3
Format/Info : Audio Coding 3
Mode extension : CM (complete main)
Format settings, Endianness : Big
Codec ID : A_AC3
Duration : 1h 28mn
Bit rate mode : Constant
Bit rate : 192 Kbps
Channel(s) : 2 channels
Channel positions : Front: L R
Sampling rate : 48.0 KHz
Bit depth : 16 bits
Compression mode : Lossy
Stream size : 122 MiB (4%)
Title : Оригинальная звуковая дорожка
Language : Japanese
Default : No
Forced : No
Text #1
ID : 6
Format : UTF-8
Codec ID : S_TEXT/UTF8
Codec ID/Info : UTF-8 Plain Text
Title : Русские (полные, МС Entertainment)
Language : Russian
Default : No
Forced : No
Text #2
ID : 7
Format : UTF-8
Codec ID : S_TEXT/UTF8
Codec ID/Info : UTF-8 Plain Text
Title : Английские
Language : English
Default : No
Forced : No

Скриншоты




Приятного просмотра !!
-
МОИ РАЗДАЧИ
Ариэтти из страны лилипутов
Рыбка Поньо на утесе
Шепот сердца
Порко Россо
Навсикая из долины ветров
Наши соседи - семья Ямада


Последний раз редактировалось: pbyeh (2015-04-24 21:29), всего редактировалось 4 раз(а)

Создавать темы 09-Июн-2013 20:38

[Профиль]  [ЛС] 

Азиз87

Стаж: 4 года 11 месяцев

Сообщений: 752

Симпатии: 143

Очень интересно к чему столько одноголосок причем 5.1 каналы походу "дутые", да и вариант авк рип чуть лучше нашего ТВ PAL-а (тоже как-то серенько), хотя сюжет "душераздерательный" в прямом слысле этого слова.

Создавать темы 09-Июн-2013 23:13

[Профиль]  [ЛС] 

FRIEND

Стаж: 6 лет 8 месяцев

Сообщений: 120

Симпатии: 7

pbyeh, хотя бы до первого сида добавьте газу, а то и не качаем и не раздаем

Создавать темы 10-Июн-2013 11:57

[Профиль]  [ЛС] 

Рашыд

Стаж: 7 лет 3 месяца

Сообщений: 6

Симпатии: 1

ууууууууу первая мая... на год меня старше..... качну... спс Аграменный)))))

Создавать темы 10-Июн-2013 22:10

[Профиль]  [ЛС] 

pbyeh ®

Стаж: 5 лет 5 месяцев

Сообщений: 33

Симпатии: 2

pbyeh, хотя бы до первого сида добавьте газу, а то и не качаем и не раздаем
Раздачу не ограничиваю, так что держите что есть !!!

Создавать темы 11-Июн-2013 17:47

[Профиль]  [ЛС] 

FRIEND

Стаж: 6 лет 8 месяцев

Сообщений: 120

Симпатии: 7

pbyeh, огромное спасибо за Ваши труды! Не смог сдержать слез! Очень трогательный, советую всем смотреть. 10 из 10!

Создавать темы 17-Июл-2013 13:16

[Профиль]  [ЛС] 

pbyeh ®

Стаж: 5 лет 5 месяцев

Сообщений: 33

Симпатии: 2

Показана жестокая реальность военного времени.

Создавать темы 17-Июл-2013 20:35

[Профиль]  [ЛС] 

vintage

Стаж: 5 лет 9 месяцев

Сообщений: 13

Друзья, почему раздачи нет(

Создавать темы 21-Июл-2014 17:12

[Профиль]  [ЛС] 
Показать сообщения:    
Ответить на тему

Текущее время: 20-Окт 08:24

Часовой пояс: UTC + 5



Вы не можете начинать темы
Вы не можете отвечать на сообщения
Вы не можете редактировать свои сообщения
Вы не можете удалять свои сообщения
Вы не можете голосовать в опросах
Вы не можете прикреплять файлы к сообщениям
Вы не можете скачивать файлы