Ужасно медленный убийца с крайне неэффективным оружием (HD 720p) / The Horribly Slow Murderer with the Extremely Inefficient Weapon (Ричард Гэйл) [2008 г., Комедия, Короткометражка, Ужасы, HDTVRip]

Ответить на тему
 

Nosferatu ®

Стаж: 4 года 7 месяцев

Сообщений: 79

Симпатии: 5

Ужасно медленный убийца с крайне неэффективным оружием
The Horribly Slow Murderer with the Extremely Inefficient Weapon
- -
Год выпуска: 2008
Страна: США
Жанр: Комедия, Короткометражка, Ужасы
Продолжительность: 00:10:16
Перевод: Профессиональный (многоголосый, закадровый)-Режиссер: Ричард Гэйл-В ролях:
Ричард Гэйл, Пол Клеменс, Брайан Роэн, Мелисса Паладино, Майкл Джеймс Кейси, Фэй Като-Описание:
Можно умереть за долю секунды. Можно умирать долго и мучительно от страшной болезни, на руках у родственников. Случайная авария может лишить вас жизни. Загадочный зомби-вирус превратит вас в ходячий труп, что само по себе смерть. Или он превратит в зомби ваших соседей и они перегрызут вам горло. Это уж как повезет. Нашествие инопланетян с планеты Железяка, восстание злобных шахтеров и клонирование динозавров, парочка ядерных грибов у вас на заднем дворе и нападение диких зверей. У человека огромный выбор, как ему умереть. Не говоря уже о смерти от старости в роскошном особняке с кучей жаждущих наследства товарищей. Все это может казаться абсурдным, глупым, страшным и смешным. Но ничто не сравнится со смертью от рук ужасно медленного убийцы с крайне неэффективным оружием.-Рейтинг КиноПоиск.Ru: 7.593 (7100)
Рейтинг IMDb: 7.8 (2960)-Качество: HDTVRip
Формат: AVC
Видео кодек: H.264
Аудио кодек: MP3
Видео: MPEG4 Video (H264) 1280x720 23.976fps 1945kbps [Video]
Аудио #1: MPEG Audio, 160 Kbps, 2 channels, 44.1 KHz, rus, Imported with GPAC 0.4.6-DEV (internal rev. 5)
Аудио #2: MPEG Audio, 160 Kbps, 2 channels, 44.1 KHz, eng, Imported with GPAC 0.4.6-DEV (internal rev. 5)

MI

Format : MPEG-4
Format profile : Base Media
Codec ID : isom
File size : 167 MiB
Duration : 10mn 16s
Overall bit rate mode : Variable
Overall bit rate : 2 269 Kbps
Encoded date : UTC 2010-12-07 22:34:22
Tagged date : UTC 2010-12-07 22:34:22
Video
ID : 1
Format : AVC
Format/Info : Advanced Video Codec
Format profile : [email protected]
Format settings, CABAC : Yes
Format settings, ReFrames : 3 frames
Codec ID : avc1
Codec ID/Info : Advanced Video Coding
Duration : 10mn 16s
Bit rate mode : Variable
Bit rate : 1 945 Kbps
Maximum bit rate : 40.0 Mbps
Width : 1 280 pixels
Height : 720 pixels
Display aspect ratio : 16:9
Frame rate mode : Constant
Frame rate : 23.976 fps
Color space : YUV
Chroma subsampling : 4:2:0
Bit depth : 8 bits
Scan type : Progressive
Bits/(Pixel*Frame) : 0.088
Stream size : 143 MiB (86%)
Title : Imported with GPAC 0.4.6-DEV (internal rev. 5)
Encoded date : UTC 2010-12-07 22:34:22
Tagged date : UTC 2010-12-07 22:34:26
Audio #1
ID : 2
Format : MPEG Audio
Format version : Version 1
Format profile : Layer 3
Codec ID : 6B
Duration : 10mn 16s
Bit rate mode : Constant
Bit rate : 160 Kbps
Maximum bit rate : 167 Kbps
Channel(s) : 2 channels
Sampling rate : 44.1 KHz
Compression mode : Lossy
Stream size : 11.8 MiB (7%)
Title : Imported with GPAC 0.4.6-DEV (internal rev. 5)
Language : Russian
Encoded date : UTC 2010-12-07 22:34:26
Tagged date : UTC 2010-12-07 22:34:26
Audio #2
ID : 3
Format : MPEG Audio
Format version : Version 1
Format profile : Layer 3
Mode : Joint stereo
Mode extension : MS Stereo
Codec ID : 6B
Duration : 10mn 16s
Duration_FirstFrame : -17ms
Bit rate mode : Constant
Bit rate : 160 Kbps
Maximum bit rate : 166 Kbps
Channel(s) : 2 channels
Sampling rate : 44.1 KHz
Compression mode : Lossy
Stream size : 11.8 MiB (7%)
Title : Imported with GPAC 0.4.6-DEV (internal rev. 5)
Writing library : LAME3.98
Encoding settings : -m j -V 4 -q 3 -lowpass 17.5 -b 160
Language : English
Encoded date : UTC 2010-12-07 22:34:26
Tagged date : UTC 2010-12-07 22:34:26

Скриншоты












Последний раз редактировалось: Nosferatu (2013-06-10 19:16), всего редактировалось 1 раз

Создавать темы 10-Июн-2013 19:12

[Профиль]  [ЛС] 

Nosferatu ®

Стаж: 4 года 7 месяцев

Сообщений: 79

Симпатии: 5

QANAQA KINO NARMALNI KINOMI A? :cc:
Короткометражка

Создавать темы 10-Июн-2013 19:17

[Профиль]  [ЛС] 

Топик был перенесен из форума Зарубежное кино в форум HD-AVC

Mixer City

Создавать темы 10-Июн-2013 19:56

 
Показать сообщения:    
Ответить на тему

Текущее время: 24-Окт 05:35

Часовой пояс: UTC + 5



Вы не можете начинать темы
Вы не можете отвечать на сообщения
Вы не можете редактировать свои сообщения
Вы не можете удалять свои сообщения
Вы не можете голосовать в опросах
Вы не можете прикреплять файлы к сообщениям
Вы не можете скачивать файлы