Невероятные приключения американца в Армении / Lost and Found in Armenia (Гор Киракосян) [2012 г., Комедия, DVDRip]

Ответить на тему
 

Nosferatu ®

Стаж: 4 года 8 месяцев

Сообщений: 79

Симпатии: 5

Невероятные приключения американца в Армении
Lost and Found in Armenia
- -
Год выпуска: 2012
Страна: США, Армения
Жанр: Комедия
Продолжительность: 01:41:18
Перевод: Профессиональный (многоголосый, закадровый)-Режиссер: Гор Киракосян-В ролях:
Дейв Шеридан, Джейми Кеннеди, Анджела Сарафян, Сердар Кэлсин, Мориса Харба, Алекс Калогномос, Бобби Беркмен, Вачик Мангассариан, Марк Герагос, Микаел Погосян-Описание:
На морском побережье солнечной Турции царит беззаботное веселье, и только сын американского сенатора страдает от несчастной любви. Ничто не может вернуть ему вкус к жизни — ни море, ни друзья, ни красивые девушки. Но неожиданное событие вмиг излечивает героя от хандры: «попутный» ветер уносит его в соседнюю Армению, в маленькую горную деревню, где его — полуголого, с парашютом за спиной и говорящего на непонятном языке — принимают за турецко-азербайджанского шпиона. В стране, о существовании которой самонадеянный американец еще вчера даже не догадывался, его ждет невероятный водоворот событий — с похищением, перестрелкой, погоней и, конечно же, романтической историей…-Рейтинг КиноПоиск.Ru: 6.315 (413)
Рейтинг IMDb: 6.5 (157)-Качество: DVDRip
Формат: AVI
Видео кодек: XviD
Аудио кодек: AC3
Видео: Xvid 720x400 25fps 1 600 Kbps [Stream 00]
Аудио: Dolby AC3 48000Hz 6ch 448kbps [Stream 01]

MI

Format : AVI
Format/Info : Audio Video Interleave
File size : 1.46 GiB
Duration : 1h 41mn
Overall bit rate : 2 058 Kbps
Movie name : Neverojatnye.prikljuchenija.amerikanca.v.Armenii.2012.P.DVDRip.IRONCLUB
Director : IRONCLUB
Genre : Comedy
Writing application : VirtualDubMod 1.5.10.3 | www.virtualdub-fr.org || (build 2550/release)
Original source form/Name : Movie
Copyright : http://ironclub.tv/
Video
ID : 0
Format : MPEG-4 Visual
Format profile : Advanced [email protected]
Format settings, BVOP : 1
Format settings, QPel : No
Format settings, GMC : No warppoints
Format settings, Matrix : Custom
Codec ID : XVID
Codec ID/Hint : XviD
Duration : 1h 41mn
Bit rate : 1 600 Kbps
Width : 720 pixels
Height : 400 pixels
Display aspect ratio : 16:9
Frame rate : 25.000 fps
Color space : YUV
Chroma subsampling : 4:2:0
Bit depth : 8 bits
Scan type : Progressive
Compression mode : Lossy
Bits/(Pixel*Frame) : 0.222
Stream size : 1.13 GiB (78%)
Writing library : XviD 1.2.1 (UTC 2008-12-04)
Audio
ID : 1
Format : AC-3
Format/Info : Audio Coding 3
Mode extension : CM (complete main)
Format settings, Endianness : Big
Codec ID : 2000
Duration : 1h 41mn
Bit rate mode : Constant
Bit rate : 448 Kbps
Channel(s) : 6 channels
Channel positions : Front: L C R, Side: L R, LFE
Sampling rate : 48.0 KHz
Bit depth : 16 bits
Compression mode : Lossy
Stream size : 325 MiB (22%)
Alignment : Split accross interleaves
Interleave, duration : 40 ms (1.00 video frame)
Interleave, preload duration : 500 ms

Скриншоты













Создавать темы 10-Июн-2013 20:48

[Профиль]  [ЛС] 

mp1988

Стаж: 6 лет 9 месяцев

Сообщений: 607

Симпатии: 971

Невероятные приключения американца в Армении / Lost and Found in Armenia (Гор Киракосян / Gor Kirakosian) [2012, США, Армения / Red Tie Films, комедия, DVDRip] Dub [Лицензия]

Создавать темы 10-Июн-2013 23:29

[Профиль]  [ЛС] 
Показать сообщения:    
Ответить на тему

Текущее время: 19-Ноя 02:23

Часовой пояс: UTC + 5



Вы не можете начинать темы
Вы не можете отвечать на сообщения
Вы не можете редактировать свои сообщения
Вы не можете удалять свои сообщения
Вы не можете голосовать в опросах
Вы не можете прикреплять файлы к сообщениям
Вы не можете скачивать файлы