Там, где заканчивается тропа / Where the Trail Ends (Jeremy Grant & Brad McGregor) [2012 г., Спорт, BDRip 720p]

Ответить на тему
 

iApple ®

Стаж: 5 лет 8 месяцев

Сообщений: 66

Симпатии: 15

Там, Где Заканчивается Тропа
Where The Trail Ends

- Общая информация
Год выпуска: 2012
Страна: США
Жанр: Спорт
Продолжительность: 1:21:49
Перевод: Одноголосный любительский + Оригинальная дорожка
Субтитры: Русские, Английские
-Создатели и актеры
Режиссер: Jeremy Grant & Brad McGregor
В ролях: Darren Berrecloth, Cameron Zink, Kurtis Sorge, James Doerfling, Andreu Lacondeguy, Paul Basagoitia, Robbie Bourdon, Kyle Strait, Cam McCaul, Tyler McCaul, Mike Kinrade, Garett Buehler
-Описание и рейтинги
Описание: "Там, где заканчивается тропа..." - это фильм повествующий о лучших фрирайд байкерах мира, Даррен Берреклот, Кэмерон Зинк, Курт Сордж, Джеймс Дорфлинг и еще полдюжины других преодолевают сложнейшие участки природного ландшафта, о том, как они ищут новые не опробованные тропы по всему миру, и строят основу для будущего горного фрирайда.
Он показывает борьбу между человеком и матерью - природой, запечатленную с помощью колоритных персонажей, которыми предстали парни. Эта история стала возможно наиболее впечатляющим, прогрессивным и амбициозным катанием, которое когда либо пытались воплотить в жизнь и, безусловно, его удалось превратить в очень увлекательное приключение.
6.9
8.862
-Доп.информация:
На китайскую речь в фильме перевода на русский нет, только вшитые субтитры на английском.
-
Технические параметры
Исходник: Blu-Ray
Качество: 720p
Формат: M4V
Видео кодек: H.264
Аудио кодек: AAC + AC3
Видео: H.264, 1280 x 720px, 23.976 fps, 6498 kbps
Аудио 1: AAC 44.1 KHz, 2.0 ch, 151 Kbps, Одноголосный любительский
Аудио 2: AAC 44.1 KHz, 2.0 ch, 152 Kbps, Английский (оригинальная дорожка)
Аудио 3: AC-3 48.0 KHz, 6.0 ch, 448 Kbps, Английский (оригинальная дорожка)
Субтитры: Русские + Английские

Скриншоты (6 шт.)






MediaInfo

General
Complete name : /Volumes/External HD/Movies/Movies/Where the Trail Ends/Where the Trail Ends (HD).m4v
Format : MPEG-4
Codec ID : M4V
File size : 4.26 GiB
Duration : 1h 21mn
Overall bit rate mode : Variable
Overall bit rate : 7 453 Kbps
Movie name : Where the Trail Ends
Performer : Jeremy Grant & Brad McGregor
Genre : Sports
Recorded date : UTC 2012-09-19 07:00:00
Encoded date : UTC 2013-06-09 17:37:55
Tagged date : UTC 2013-06-09 17:50:00
Copyright : © 2012 Red Bull Media House GmbH.
Cover : Yes
sonm : Where the Trail Ends
desc : "Там, где заканчивается тропа..." - это фильм повествующий о лучших фрирайд байкерах мира.
ldes : "Там, где заканчивается тропа..." - это фильм повествующий о лучших фрирайд байкерах мира, Даррен Берреклот, Кэмерон Зинк, Курт Сордж, Джеймс Дорфлинг и еще полдюжины других преодолевают сложнейшие участки природного ландшафта, о том, как они ищут новые не опробованные тропы по всему миру, и строят основу для будущего горного фрирайда. / Он показывает борьбу между человеком и матерью - природой, запечатленную с помощью колоритных персонажей, которыми предстали парни. Эта история стала возможно наиболее впечатляющим, прогрессивным и амбициозным катанием, которое когда либо пытались воплотить в жизнь и, безусловно, его удалось превратить в очень увлекательное приключение.
hdvd : 1
stik : 9
rtng : 0
cnID : 557844866
xid : RG-Apple:vendor_id:2012-557844866
iTunEXTC : uk-movie|NR|000|
iTunMOVI : <?xml version="1.0" encoding="UTF-8"?> / <!DOCTYPE plist PUBLIC "-//Apple//DTD PLIST 1.0//EN" "http://www.apple.com/DTDs/PropertyList-1.0.dtd"> / <plist version="1.0"> / <dict> / <key>cast</key> / <array> / <dict> / <key>name</key> / <string>Darren Berrecloth</string> / </dict> / <dict> / <key>name</key> / <string>Cameron Zink</string> / </dict> / <dict> / <key>name</key> / <string>Kurtis Sorge</string> / </dict> / <dict> / <key>name</key> / <string>James Doerfling</string> / </dict> / <dict> / <key>name</key> / <string>Andreu Lacondeguy</string> / </dict> / <dict> / <key>name</key> / <string>Paul Basagoitia</string> / </dict> / <dict> / <key>name</key> / <string>Robbie Bourdon</string> / </dict> / <dict> / <key>name</key> / <string>Kyle Strait</string> / </dict> / <dict> / <key>name</key> / <string>Cam McCaul</string> / </dict> / <dict> / <key>name</key> / <string>Tyler McCaul</string> / </dict> / <dict> / <key>name</key> / <string>Mike Kinrade</string> / </dict> / <dict> / <key>name</key> / <string>Garett Buehler</string> / </dict> / </array> / <key>directors</key> / <array> / <dict> / <key>name</key> / <string>Jeremy Grant & Brad McGregor</string> / </dict> / </array> / <key>producers</key> / <array> / <dict> / <key>name</key> / <string>Red Bull Media House Freeride Entertainment</string> / </dict> / </array> / </dict> / </plist>
Video
ID : 1
Format : AVC
Format/Info : Advanced Video Codec
Format profile : [email protected]
Format settings, CABAC : Yes
Format settings, ReFrames : 9 frames
Muxing mode : Container [email protected]
Codec ID : avc1
Codec ID/Info : Advanced Video Coding
Duration : 1h 21mn
Bit rate mode : Variable
Bit rate : 6 498 Kbps
Width : 1 280 pixels
Height : 720 pixels
Display aspect ratio : 16:9
Frame rate mode : Variable
Frame rate : 23.976 fps
Minimum frame rate : 23.810 fps
Maximum frame rate : 24.390 fps
Color space : YUV
Chroma subsampling : 4:2:0
Bit depth : 8 bits
Scan type : Progressive
Bits/(Pixel*Frame) : 0.294
Stream size : 3.71 GiB (87%)
Writing library : x264 core 125 r2200 999b753
Encoding settings : ???
Language : English
Encoded date : UTC 2013-06-09 17:37:55
Tagged date : UTC 2013-06-09 17:45:15
Audio #1
ID : 2
Format : AAC
Format/Info : Advanced Audio Codec
Format profile : LC
Codec ID : 40
Duration : 1h 21mn
Bit rate mode : Variable
Bit rate : 151 Kbps
Maximum bit rate : 179 Kbps
Channel(s) : 2 channels
Channel positions : Front: L R
Sampling rate : 44.1 KHz
Compression mode : Lossy
Stream size : 88.2 MiB (2%)
Language : Russian
Encoded date : UTC 2013-06-09 17:37:55
Tagged date : UTC 2013-06-09 17:46:20
Audio #2
ID : 3
Format : AAC
Format/Info : Advanced Audio Codec
Format profile : LC
Codec ID : 40
Duration : 1h 21mn
Bit rate mode : Variable
Bit rate : 152 Kbps
Maximum bit rate : 247 Kbps
Channel(s) : 2 channels
Channel positions : Front: L R
Sampling rate : 44.1 KHz
Compression mode : Lossy
Stream size : 88.9 MiB (2%)
Language : English
Encoded date : UTC 2013-06-09 17:37:55
Tagged date : UTC 2013-06-09 17:49:25
Audio #3
ID : 4
Format : AC-3
Format/Info : Audio Coding 3
Mode extension : CM (complete main)
Codec ID : ac-3
Duration : 1h 21mn
Bit rate mode : Constant
Bit rate : 640 Kbps
Channel(s) : 6 channels
Channel positions : Front: L C R, Side: L R, LFE
Sampling rate : 48.0 KHz
Bit depth : 16 bits
Compression mode : Lossy
Stream size : 375 MiB (9%)
Language : English
Encoded date : UTC 2013-06-09 17:37:55
Tagged date : UTC 2013-06-09 17:45:15
Text #1
ID : 5
Format : Timed text
Muxing mode : sbtl
Codec ID : tx3g
Duration : 1h 17mn
Bit rate mode : Variable
Bit rate : 85 bps
Stream size : 48.3 KiB (0%)
Language : Russian
Encoded date : UTC 2013-06-09 17:37:55
Tagged date : UTC 2013-06-09 17:45:15
Text #2
ID : 6
Format : Timed text
Muxing mode : sbtl
Codec ID : tx3g
Duration : 1h 16mn
Bit rate mode : Variable
Bit rate : 56 bps
Stream size : 31.6 KiB (0%)
Language : English
Encoded date : UTC 2013-06-09 17:37:55
Tagged date : UTC 2013-06-09 17:45:15

Для просмотра данного релиза на компьютере с ОС Windows рекомендуется использовать VLC media player (tas-ix.net) или iTunes (tas-ix.net или tas-ix.net)

Создавать темы 11-Июн-2013 02:52

[Профиль]  [ЛС] 

Canyok

Стаж: 5 лет 6 месяцев

Сообщений: 22

почему не качает?
70% дальше не идет

Создавать темы 25-Июн-2013 17:01

[Профиль]  [ЛС] 

iApple ®

Стаж: 5 лет 8 месяцев

Сообщений: 66

Симпатии: 15

Canyok, даже и не знаю... я круглосуточно на раздаче, но почему то никто не качает.

Создавать темы 26-Июн-2013 13:01

[Профиль]  [ЛС] 

Canyok

Стаж: 5 лет 6 месяцев

Сообщений: 22

на storent(точка)org выложите пожалуйста, хоть докачаю

Создавать темы 26-Июн-2013 15:02

[Профиль]  [ЛС] 

iApple ®

Стаж: 5 лет 8 месяцев

Сообщений: 66

Симпатии: 15

Canyok, а какая разница... раздавать то всё равно буду я. Сид останется тот же. Попробуйте обновить торрент, выключить другие закачки... что там ещё можно сделать? Я даже готов выключить все остальные раздачи, если это поможет вам скачать. Попробуйте что-нибудь сделать... я сейчас всё остановил, раздаю только этот фильм.

Создавать темы 26-Июн-2013 17:45

[Профиль]  [ЛС] 

Canyok

Стаж: 5 лет 6 месяцев

Сообщений: 22

нет, на данном трекере очень перегруженный канал и у малопопулярных раздач низкий приоритет. у меня тут почти все по пол года качает.
у меня и так только один торрент работает, не в этом дело.
если не трудно. спасибо.

Создавать темы 27-Июн-2013 14:15

[Профиль]  [ЛС] 

iApple ®

Стаж: 5 лет 8 месяцев

Сообщений: 66

Симпатии: 15

Canyok, написал вам в ЛС. Попробуйте, если не получится, что-нибудь придумаем.

Создавать темы 27-Июн-2013 22:57

[Профиль]  [ЛС] 

iApple ®

Стаж: 5 лет 8 месяцев

Сообщений: 66

Симпатии: 15

Canyok, вроде бы пошла закачка... Попробуйте, может на волне пойдёт.

Создавать темы 29-Июн-2013 12:39

[Профиль]  [ЛС] 

Canyok

Стаж: 5 лет 6 месяцев

Сообщений: 22

http://mover.uz/watch/C5ydTo8/
Конечно это не вышестоящий фильм, но что есть, то есть :)

Создавать темы 02-Июл-2013 16:46

[Профиль]  [ЛС] 

iApple ®

Стаж: 5 лет 8 месяцев

Сообщений: 66

Симпатии: 15

Canyok,
Класс! Я с вами хочу! Только вы наверное безшлемных не берёте...?
А у меня ни защитки, ни шлема нет. Да и вел поднастроить нужно...
Кстати, не знаете где и к кому можно обратиться за помощью
в настройке и советом по уходу за велом?

Создавать темы 02-Июл-2013 23:18

[Профиль]  [ЛС] 

Canyok

Стаж: 5 лет 6 месяцев

Сообщений: 22

берем, в первые разы сами без ничего катали, но за безопасность отвечаешь сам :)
честно говоря мастеров я никого не знаю, все сам делаю. совет могут дать здесь: http://uforum.uz/forumdisplay.php?f=564 в нужной теме, в т.ч. и я.

Создавать темы 09-Июл-2013 00:39

[Профиль]  [ЛС] 
Показать сообщения:    
Ответить на тему

Текущее время: 21-Окт 20:35

Часовой пояс: UTC + 5



Вы не можете начинать темы
Вы не можете отвечать на сообщения
Вы не можете редактировать свои сообщения
Вы не можете удалять свои сообщения
Вы не можете голосовать в опросах
Вы не можете прикреплять файлы к сообщениям
Вы не можете скачивать файлы