Любовь по-взрослому / This Is 40 (Джудд Апатоу / Judd Apatow) [2012, США, комедия, BDRip] [Theatrical Cut][лицензия]

Ответить на тему
 

Suxrob89 ®

Стаж: 7 лет 4 месяца

Сообщений: 933

Симпатии: 564

Любовь по-взрослому / This Is 40
Театральная версия / Theatrical Cut
«The Sort-of Sequel to 'Knocked Up'»
-Страна: США / Apatow Productions, Forty Productions
Жанр: комедия
Год выпуска: 2012
Продолжительность: 02:13:44
Перевод: Профессиональный (дублированный) [лицензия]
Cубтитры: русские (forced) на надписи и пр. (внешние)-Режиссёр: Джудд Апатоу / Judd Apatow-В ролях: Пол Радд, Лесли Манн, Мелисса МакКарти, Джон Литгоу, Меган Фокс, Альберт Брукс, Лина Данэм, Джейсон Сигел, Шарлин Йи, Крис О’Дауд, Мод Апатоу, Айрис Апатоу, Энни Мумоло, Роберт Шмигель.-Описание: Спин-офф комедии «Немножко беременна» 2007 года. Взгляд на жизнь Пита и Дебби спустя несколько лет после событий первого фильма: к сложностям брака прибавляются финансовые проблемы.- -Качество видео: BDRip [THIS_IS_40_2012_TC_BD-REMUX_HDCLUB]
Формат видео: AVI
Видео: XviD build 65, 720x304 (2.37:1), 23.976 fps, ~1939 kbps avg, 0.27 bit/pixel
Аудио: 48 kHz, AC3 Dolby Digital, 3/2 (L,C,R,l,r) + LFE ch, ~384 kbps avg (Dub)
Формат субтитров: softsub (SRT)-

MediaInfo

General
Complete name : D\This.Is.40.2012.Dub.Theatrical.Cut.BDRip.2,18Gb.XviD.AC3\This.Is.40.2012.Dub.Theatrical.Cut.BDRip.2,18Gb.XviD.AC3.avi
Format : AVI
Format/Info : Audio Video Interleave
Format profile : OpenDML
File size : 2.18 GiB
Duration : 2h 13mn
Overall bit rate : 2 334 Kbps
Writing application : VirtualDubModRus 1.5.10.2 (build 2542/release)
Writing library : VirtualDubMod build 2542/release
Video
ID : 0
Format : MPEG-4 Visual
Format profile : Advanced [email protected]
Format settings, BVOP : 1
Format settings, QPel : No
Format settings, GMC : No warppoints
Format settings, Matrix : Custom
Codec ID : XVID
Codec ID/Hint : XviD
Duration : 2h 13mn
Bit rate : 1 939 Kbps
Width : 720 pixels
Height : 304 pixels
Display aspect ratio : 2.35:1
Frame rate : 23.976 fps
Color space : YUV
Chroma subsampling : 4:2:0
Bit depth : 8 bits
Scan type : Progressive
Compression mode : Lossy
Bits/(Pixel*Frame) : 0.369
Stream size : 1.81 GiB (83%)
Writing library : XviD 65
Audio
ID : 1
Format : AC-3
Format/Info : Audio Coding 3
Mode extension : CM (complete main)
Format settings, Endianness : Big
Codec ID : 2000
Duration : 2h 13mn
Bit rate mode : Constant
Bit rate : 384 Kbps
Channel(s) : 6 channels
Channel positions : Front: L C R, Side: L R, LFE
Sampling rate : 48.0 KHz
Bit depth : 16 bits
Compression mode : Lossy
Stream size : 367 MiB (16%)
Alignment : Split accross interleaves
Interleave, duration : 42 ms (1.00 video frame)
Interleave, preload duration : 500 ms
Title : Dub

Скриншот с названием фильма

Скриншоты

Создавать темы 11-Июн-2013 08:16

[Профиль]  [ЛС] 

Azimaka

Стаж: 5 лет 2 месяца

Сообщений: 40

Скорости будут?

Создавать темы 19-Июл-2013 22:31

[Профиль]  [ЛС] 
Показать сообщения:    
Ответить на тему

Текущее время: 13-Дек 21:36

Часовой пояс: UTC + 5



Вы не можете начинать темы
Вы не можете отвечать на сообщения
Вы не можете редактировать свои сообщения
Вы не можете удалять свои сообщения
Вы не можете голосовать в опросах
Вы не можете прикреплять файлы к сообщениям
Вы не можете скачивать файлы