100 миллионов евро / Les Tuche (Оливье Барру) [2011 г., комедия, HDRip]

Ответить на тему
 

igor1968 ®

Стаж: 5 лет 5 месяцев

Сообщений: 366

Симпатии: 197

100 миллионов евро / Les Tuche
Год выпуска: 2011
Страна:
Жанр: комедия
Продолжительность: 01:34:03.554
Перевод: Профессиональный (полное дублирование)
Режиссер: Оливье Барру
В ролях: Жан-Поль Рув , Изабель Нанти , Клер Надо , Тео Фернандез ,
Сара Штерн , Пьер Лоттен , Фадила Белкебла , Дэвид Камменос , Сами Уталбали ,
Карина Теста ...
История хорошо знакомой всей округе семьи Туше, которая постоянно стеснена в средствах, но никогда не жалуется на судьбу и находит своё счастье в работе. Они всегда бедны, но счастливы.
Неожиданно на них сваливается огромное богатство, которое влечёт за собой большие перемены в их жизни. Смогут ли они изменить свои привычки и жизненный уклад, продолжая оставаться самими собой?   Премьера 1 июля 2011, ...
Релиз на DVD17 сентября 2012, «Новый Диск», ... Качество: HDRip
Формат: AVI
Видео кодек: XviD
Аудио кодек: AC3
Видео: 720x304 (2.37:1), 23.976 fps, XviD build 50 ~1759 kbps avg, 0.34 bit/pixel
Аудио: 48 kHz, AC3 Dolby Digital, 3/2 (L,C,R,l,r) + LFE ch, ~448.00 kbps avg

MediaInfo

General
Complete name :100.millionov.evro.2011.D.HDRip.avi
Format : AVI
Format/Info : Audio Video Interleave
File size : 1.46 GiB
Duration : 1h 34mn
Overall bit rate : 2 217 Kbps
Movie name : 100.millionov.evro.2011.D.HDRip.IRONCLUB
Director : IRONCLUB
Genre : Comedy / Drama / Romance
Writing application : VirtualDubMod 1.5.10.2 (build 2540/release)
Original source form/Name : Movie
Copyright : http://ironclub.tv/
Video
ID : 0
Format : MPEG-4 Visual
Format profile : Advanced [email protected]
Format settings, BVOP : 2
Format settings, QPel : No
Format settings, GMC : No warppoints
Format settings, Matrix : Custom
Codec ID : XVID
Codec ID/Hint : XviD
Duration : 1h 34mn
Bit rate : 1 760 Kbps
Width : 720 pixels
Height : 304 pixels
Display aspect ratio : 2.35:1
Frame rate : 23.976 fps
Color space : YUV
Chroma subsampling : 4:2:0
Bit depth : 8 bits
Scan type : Progressive
Compression mode : Lossy
Bits/(Pixel*Frame) : 0.335
Stream size : 1.16 GiB (79%)
Writing library : XviD 1.2.1 (UTC 2008-12-04)
Audio
ID : 1
Format : AC-3
Format/Info : Audio Coding 3
Mode extension : CM (complete main)
Format settings, Endianness : Big
Codec ID : 2000
Duration : 1h 34mn
Bit rate mode : Constant
Bit rate : 448 Kbps
Channel(s) : 6 channels
Channel positions : Front: L C R, Side: L R, LFE
Sampling rate : 48.0 KHz
Bit depth : 16 bits
Compression mode : Lossy
Stream size : 301 MiB (20%)
Alignment : Split accross interleaves
Interleave, duration : 42 ms (1.00 video frame)
Interleave, preload duration : 500 ms

Скриншоты

Создавать темы 11-Июн-2013 13:23

[Профиль]  [ЛС] 

Tiar17

Стаж: 5 лет 10 месяцев

Сообщений: 83

Симпатии: 5

описание интригующее, качну пожалуй.
посмотрел,фильмец в норме.

Создавать темы 11-Июн-2013 17:45

[Профиль]  [ЛС] 
Показать сообщения:    
Ответить на тему

Текущее время: 22-Авг 00:41

Часовой пояс: UTC + 5



Вы не можете начинать темы
Вы не можете отвечать на сообщения
Вы не можете редактировать свои сообщения
Вы не можете удалять свои сообщения
Вы не можете голосовать в опросах
Вы не можете прикреплять файлы к сообщениям
Вы не можете скачивать файлы