Интимный словарь / The Sleeping Dictionary (Гай Дженкин) [2003 г., драма, мелодрама, DVDRip]

Ответить на тему
 

cyclone ®

Стаж: 5 лет 5 месяцев

Сообщений: 34

Симпатии: 3

Интимный словарь / The Sleeping Dictionary
Год выпуска: 2003
Страна: США, Малайзия, Германия
Жанр: драма, мелодрама
Продолжительность: 01:44:49
Перевод: Профессиональный (полное дублирование)
Режиссер: Гай Дженкин
В ролях: Джессика Альба, Хью Дэнси, Бренда Блетин, Боб Хоскинс, Кристофер Линг Ли Йен, Юникс Инокян, Майкл Джессинг Лангги, Мано Маниам, К.К. Могги, Эмили Мортимер
Описание: Прекрасная островитянка становится добровольной наложницей английского чиновника. Девушек, подобных нашей героине, называют «интимными словарями»: они помогают колонистам осваивать местный язык и обычаи — в постели. Но на этот раз между обворожительным «интимным словарем» и ее хозяином вспыхивает любовь.
К несчастью, влюбленных безжалостно разлучают. Спустя год молодой человек возвращается из Англии уже с женой, но прошлое вторгается в его жизнь и все меняет…
Доп. информация: Kinopoisk.ru: 7.373 5299
IMDb: 6.40 (5 124)
Качество: DVDRip
Формат: AVI
Видео кодек: DivX
Аудио кодек: AC3
Видео: DivX 5 640x352 25fps [Stream 00]
Аудио: Dolby AC3 48000Hz 5ch 448kbps [Stream 01]

Media Info

General
Complete name : D:\Films\Интимный словарь.avi
Format : AVI
Format/Info : Audio Video Interleave
File size : 1.37 GiB
Duration : 1h 44mn
Overall bit rate : 1 868 Kbps
Movie name : The Sleeping Dictionary (Интимный словарь), 2002 - part1
Director : RDA Team
Writing application : VirtualDubMod 1.5.10.1 (build 2366/release)
Writing library : VirtualDubMod build 2366/release
Copyright : © 2003
Video
ID : 0
Format : MPEG-4 Visual
Format settings, BVOP : 1
Format settings, QPel : No
Format settings, GMC : No warppoints
Format settings, Matrix : Default (H.263)
Muxing mode : Packed bitstream
Codec ID : DX50
Codec ID/Hint : DivX 5
Duration : 1h 44mn
Bit rate : 1 411 Kbps
Width : 640 pixels
Height : 352 pixels
Display aspect ratio : 16:9
Frame rate : 25.000 fps
Color space : YUV
Chroma subsampling : 4:2:0
Bit depth : 8 bits
Scan type : Progressive
Compression mode : Lossy
Bits/(Pixel*Frame) : 0.250
Stream size : 1.03 GiB (76%)
Writing library : DivX 5.0.5 (UTC 2003-04-24)
Audio
ID : 1
Format : AC-3
Format/Info : Audio Coding 3
Mode extension : CM (complete main)
Format settings, Endianness : Big
Codec ID : 2000
Duration : 1h 44mn
Bit rate mode : Constant
Bit rate : 448 Kbps
Channel(s) : 6 channels
Channel positions : Front: L C R, Side: L R, LFE
Sampling rate : 48.0 KHz
Bit depth : 16 bits
Compression mode : Lossy
Stream size : 336 MiB (24%)
Alignment : Split accross interleaves
Interleave, duration : 40 ms (1.00 video frame)
Interleave, preload duration : 500 ms
Language : Undefined

Скриншоты






Создавать темы 11-Июн-2013 14:53

[Профиль]  [ЛС] 

Slowwalker

Стаж: 4 года 7 месяцев

Сообщений: 165

Симпатии: 68

какая красавица! беру! ))

Создавать темы 11-Июн-2013 15:17

[Профиль]  [ЛС] 

olim5631

Стаж: 4 года 6 месяцев

Сообщений: 120

Симпатии: 1

какая красавица! беру! ))
в жёны???

Создавать темы 11-Июн-2013 17:12

[Профиль]  [ЛС] 

Slowwalker

Стаж: 4 года 7 месяцев

Сообщений: 165

Симпатии: 68

какая красавица! беру! ))
в жёны???
Так и думал, что какой нибудь Петросян напишет это...
cyclone,
Долго будем ждать! у сайта модеров в этой ветка маловато.

Создавать темы 11-Июн-2013 17:33

[Профиль]  [ЛС] 

Топик был перенесен из форума Фильмы за 2010 в форум Зарубежное кино

Mixer City

Создавать темы 11-Июн-2013 19:30

 

blackout

Стаж: 5 лет 4 месяца

Сообщений: 8

Симпатии: 1

дайте скорости

Создавать темы 06-Сен-2014 12:16

[Профиль]  [ЛС] 

Жанибек

Стаж: 3 года 8 месяцев

Сообщений: 35

Симпатии: 3

Дайте скорости

Создавать темы 03-Фев-2015 09:26

[Профиль]  [ЛС] 

Жанибек

Стаж: 3 года 8 месяцев

Сообщений: 35

Симпатии: 3

Раздайте плиз

Создавать темы 06-Фев-2015 11:48

[Профиль]  [ЛС] 
Показать сообщения:    
Ответить на тему

Текущее время: 23-Авг 07:23

Часовой пояс: UTC + 5



Вы не можете начинать темы
Вы не можете отвечать на сообщения
Вы не можете редактировать свои сообщения
Вы не можете удалять свои сообщения
Вы не можете голосовать в опросах
Вы не можете прикреплять файлы к сообщениям
Вы не можете скачивать файлы