Полетта / Paulette (Жером Энрико / Jérôme Enrico) [2012, Франция, комедия, HDRip] чистый звук

Ответить на тему
 

Suxrob89 ®

Стаж: 7 лет 4 месяца

Сообщений: 933

Симпатии: 564

-Полетта / Paulette- Страна: Франция
Жанр: комедия
Год выпуска: 2012
Продолжительность: 01:26:49
Перевод: Профессиональный (дублированный) чистый звук
Cубтитры: нет-Режиссер: Жером Энрико / Jérôme Enrico-В ролях: Бернадетт Лафон, Кармен Маура, Доминик Лаванан, Франсуаз Бертен, Андре Пенверн, Исмаэль Драме, Жан-Баптист Анумон, Аксель Лафон, Пако Бублар, Махмаду Кулибали-Описание: Полетт — вредная старушка с непростым характером. Она ненавидит соседей, поскольку те мусорят и шумят. Она не любит своего внука и придумала ему прозвище Черныш, поскольку дочь вышла замуж за чернокожего полицейского (зятя Полетт называет Обамой). Когда социальные службы начинают за долги описывать ее имущество, она принимает нестандартное решение: отправляется к местному наркодилеру и предлагает свои услуги. Бандиты ошеломлены, но бабушка находит убедительные доводы, чтобы ее приняли на работу. Не проходит и месяца, как Полетт становится крупнейшим торговцем всех видов наркотиков в районе. Бизнес процветает, жизнь налаживается. Однако любопытные подруги, зять, любвеобильный сосед и бандиты не дают насладиться ей обретенным благосостоянием.
Сэмпл
Качество видео: HDRip [рип с BDRip 720p]
Формат видео: AVI
Видео: 2053 Kb/s, 720x384,24.000fps
Аудио: AC3, 192 Kb/s (2 ch),48.0khz

MediaInfo

General
Complete name : C:\фильмы\Poletta.2012.D.HDRip.avi
Format : AVI
Format/Info : Audio Video Interleave
File size : 1.37 GiB
Duration : 1h 26mn
Overall bit rate : 2 254 Kbps
Writing application : VirtualDubMod 1.5.10.2 (build 2540/release)
Writing library : VirtualDubMod build 2540/release
Video
ID : 0
Format : MPEG-4 Visual
Format profile : Advanced [email protected]
Format settings, BVOP : Yes
Format settings, QPel : No
Format settings, GMC : No warppoints
Format settings, Matrix : Default (MPEG)
Codec ID : XVID
Codec ID/Hint : XviD
Duration : 1h 26mn
Bit rate : 2 053 Kbps
Width : 720 pixels
Height : 384 pixels
Display aspect ratio : 1.875
Frame rate : 24.000 fps
Resolution : 8 bits
Colorimetry : 4:2:0
Scan type : Progressive
Bits/(Pixel*Frame) : 0.309
Stream size : 1.24 GiB (91%)
Writing library : XviD 1.2.1 (UTC 2008-12-04)
Audio
ID : 1
Format : AC-3
Format/Info : Audio Coding 3
Codec ID : 2000
Duration : 1h 26mn
Bit rate mode : Constant
Bit rate : 192 Kbps
Channel(s) : 2 channels
Channel positions : Front: L R
Sampling rate : 48.0 KHz
Stream size : 119 MiB (9%)
Alignment : Split accross interleaves
Interleave, duration : 42 ms (1.00 video frame)
Interleave, preload duration : 500 ms

Скриншоты



Последний раз редактировалось: Suxrob89 (2013-06-14 13:43), всего редактировалось 1 раз

Создавать темы 12-Июн-2013 13:53

[Профиль]  [ЛС] 

rza

Стаж: 6 лет 7 месяцев

Сообщений: 11

Это чистый звук AC3, 192 Kb/s (2 ch),48.0khz!!!!

Создавать темы 12-Июн-2013 22:06

[Профиль]  [ЛС] 

X_pack

Стаж: 5 лет 1 месяц

Сообщений: 14

Как фильмец?

Создавать темы 13-Июн-2013 15:04

[Профиль]  [ЛС] 

Yuriy22

Стаж: 4 года 9 месяцев

Сообщений: 32

Симпатии: 1

прикольный фильм pc

Создавать темы 09-Авг-2013 20:33

[Профиль]  [ЛС] 

СтАсИкОс

Стаж: 6 лет 11 месяцев

Сообщений: 314

Симпатии: 20

http://tas-ix.net/viewtopic.php?p=765780#765780

Создавать темы 07-Фев-2014 10:45

[Профиль]  [ЛС] 
Показать сообщения:    
Ответить на тему

Текущее время: 13-Дек 01:08

Часовой пояс: UTC + 5



Вы не можете начинать темы
Вы не можете отвечать на сообщения
Вы не можете редактировать свои сообщения
Вы не можете удалять свои сообщения
Вы не можете голосовать в опросах
Вы не можете прикреплять файлы к сообщениям
Вы не можете скачивать файлы