Ликвидатор / Liquidator (Акан Сатаев) [2011 г., боевик , триллер , криминал , ..., DVDScreener]

Тема закрыта
 

pipec1 ®

Стаж: 4 года 4 месяца

Сообщений: 11

Симпатии: 1

Ликвидатор / Liquidator
Год выпуска: 2011
Страна: Казахстан
Жанр: боевик , триллер , криминал , ...
Продолжительность: 1:34:04
Режиссер: Акан Сатаев
В ролях: Берик Айтжанов, Карлыгаш Мухамеджанова, Азиз Бейшеналиев, Ментай Утепбергенов, Виктор Ашанин, Михаил Токарев, Толеубек Оралбай, Анатолий Креженчуков, Винни Джонс (Великобритания).
Описание: Молодой человек по имени Арсен, который работает телохранителем, после гибели брата находит информацию о том, что смерть брата не была случайностью. В этот момент на него выходит некая организация в лице агентов безопасности, которые подтверждают догадки Арсена. Для себя он принимает решение, во что бы то ни стало найти правду, в этом запутанном деле. Вертикаль ответственных за гибель брата поднимается всё выше и выше. Хватит ли у него сил дойти до конца?
Доп. информация: Complete name : Ликвидатор [by pipec1].avi
Format : AVI
Format/Info : Audio Video Interleave
File size : 703 MiB
Duration : 1h 34mn
Overall bit rate : 1 045 Kbps
Movie name : Likvidator.2011.O.DVDScr
Director : Kerob
Writing application : DigiArty AV Encoder Core
Copyright : KikTEAM
Video #0
ID : 0
Format : MPEG-4 Visual
Format profile : Advanced [email protected]
Format settings, BVOP : 1
Format settings, QPel : No
Format settings, GMC : No warppoints
Format settings, Matrix : Default (MPEG)
Codec ID : XVID
Codec ID/Hint : XviD
Duration : 1h 34mn
Bit rate : 903 Kbps
Width : 640 pixels
Height : 272 pixels
Display aspect ratio : 2.35:1
Frame rate : 29.970 fps
Color space : YUV
Chroma subsampling : 4:2:0
Bit depth : 8 bits
Scan type : Progressive
Compression mode : Lossy
Bits/(Pixel*Frame) : 0.173
Stream size : 608 MiB (86%)
Writing library : XviD 1.2.1 (UTC 2008-12-04)
Audio #1
ID : 1
Format : MPEG Audio
Format version : Version 1
Format profile : Layer 3
Codec ID : 55
Codec ID/Hint : MP3
Duration : 1h 34mn
Bit rate mode : Constant
Bit rate : 128 Kbps
Channel(s) : 2 channels
Sampling rate : 48.0 KHz
Compression mode : Lossy
Stream size : 86.1 MiB (12%)
Alignment : Aligned on interleaves
Interleave, duration : 24 ms (0.72 video frame)
Interleave, preload duration : 504 ms
Writing library : LAME3.98.2
Качество: DVDScreener
Формат: AVI
Видео кодек: XviD
Аудио кодек: MP3
Видео: 903 Kbps , 640x272 , 29.970 fps
Аудио: MP3 , 2Ch , 48.0 KHz , 128 Kbps

Скриншоты




Создавать темы 12-Июн-2013 14:42

[Профиль]  [ЛС] 

Иви

Стаж: 5 лет 9 месяцев

Сообщений: 688

Симпатии: 65

Ликвидатор (Акан Сатаев) [2011 г., боевик, триллер, криминал, DVDRip]

Создавать темы 14-Июн-2013 13:17

[Профиль]  [ЛС] 
Показать сообщения:    
Тема закрыта

Текущее время: 21-Окт 18:48

Часовой пояс: UTC + 5



Вы не можете начинать темы
Вы не можете отвечать на сообщения
Вы не можете редактировать свои сообщения
Вы не можете удалять свои сообщения
Вы не можете голосовать в опросах
Вы не можете прикреплять файлы к сообщениям
Вы не можете скачивать файлы