Ханаан / Canaan / 428 the animation (Андо Масахиро) [TV] [13 из 13] [без хардсаба] [RUS(ext), JAP+SUB] [2009 г., боевик, драма, BDRip] [720p]

Ответить на тему
 

MeiDoCorpse ®

Стаж: 4 года 5 месяцев

Сообщений: 222

Симпатии: 14

-Ханаан | Canaan | カナン- Год выпуска: 2009
Страна: Япония
Жанр: боевик, драма
Продолжительность: ТВ (13 эп., 25 мин.)-Перевод:
  • русские субтитры от Kuroyami & E-HARO
    (переводчик: Xyanide, редактор: SilverDragon, перевод песен: Atlas, тайпсет: z0rc, Xyanide, Mendor)
Озвучка:
  • двухголосая (жен./муж.) от Eladiel & Enilou
-Режиссёр: Андо Масахиро
Автор оригинала: Насу Киноко
Студия: P.A. Works-Описание:
Синдикат «Хэби» свирепствует в Юго-Восточной Азии, занимаясь убийствами, терактами и более серьезными делами. Но спецслужбам повезло: в Пакистане удается арестовать главу синдиката – таинственную Альфард, которую этапируют в Шанхай, где на ней «висит» куда больше преступлений. Кроме спецслужб, в логове синдиката главу бандитов ждет Ханаан – одинокая «охотница за головами», приехавшая ради кровной мести. Но охотница, ведомая собственным кодексом, не стреляет во врага, пока та беспомощна и окружена агентами. Она знает, что «на своем поле» Альфард недолго пробудет в заключении, после чего можно будет встретиться в честном поединке.
Тем временем, в Шанхай на фестиваль и конференцию по борьбе с терроризмом прибывают репортер Минору и фотограф Мария. В праздничной суете они разделяются, и Мария вдруг попадет в гущу боя, откуда ее спасает Ханаан – как выясняется, старая знакомая. Теперь Ханаан засветилась, и Лян Ци – верная подручная Альфард - вынуждена делить внимание между спасением босса и уничтожением старого врага. А ликующая толпа среди треска петард не обращает внимания ни на выстрелы, ни на то, что среди них уже умирают жертвы страшной эпидемии. Кто же победит в «битве во время чумы»?© Hollow, World Art-Информационные ссылки: AniDB || World Art || MAL-Качество: BDRip
Энкод: Yousei-raws
Тип видео: без хардсаба
Формат: mkv
Видео: x264 (Hi10p), 1280x720, ~3500 Kbps, 23,976 fps
Аудио JAP: AC3, 48000Hz, ~640 Kbps, 6ch
Аудио RUS: AAC, 48000Hz, ~640 Kbps, 6ch-

Список эпизодов

01. Crimson Shanghai
02. A Cruel Game
03. A Trivial Matter
04. Growing Dark
05. Friends
06. Love & Piece
07. Gravestone
08. Request
09. Flower of the Past
10. Vanish
11. Thoughts
12. Seasonal Train
13. Land of Hope

Скриншоты

Подробные тех. данные

General
Unique ID : 235085504352763776031570342320617031127 (0xB0DBD23C49F898118656E20B91DC05D7)
Complete name : D:\Anime\Canaan [BD] [720p]\[Yousei-raws] Canaan 01 [BDrip 1280x720 x264 AC-3].mkv
Format : Matroska
Format version : Version 2
File size : 712 MiB
Duration : 23mn 56s
Overall bit rate : 4 162 Kbps
Encoded date : UTC 2012-01-04 13:20:50
Writing application : mkvmerge v2.9.7 ('Tenderness') built on Jul 1 2009 18:43:35
Writing library : libebml v0.7.7 + libmatroska v0.8.1
Video
ID : 1
Format : AVC
Format/Info : Advanced Video Codec
Format profile : High [email protected]
Format settings, CABAC : Yes
Format settings, ReFrames : 9 frames
Codec ID : V_MPEG4/ISO/AVC
Duration : 23mn 56s
Bit rate : 3 439 Kbps
Width : 1 280 pixels
Height : 720 pixels
Display aspect ratio : 16:9
Frame rate mode : Constant
Frame rate : 23.976 fps
Color space : YUV
Chroma subsampling : 4:2:0
Bit depth : 10 bits
Scan type : Progressive
Bits/(Pixel*Frame) : 0.156
Stream size : 589 MiB (83%)
Writing library : x264 core 118 r2085+614 d1cc25d
Encoding settings : cabac=1 / ref=9 / deblock=1:-2:-2 / analyse=0x3:0x133 / me=umh / subme=9 / psy=1 / fade_compensate=0.00 / psy_rd=0.90:0.00 / mixed_ref=1 / me_range=24 / chroma_me=1 / trellis=2 / 8x8dct=1 / cqm=0 / deadzone=21,11 / fast_pskip=1 / chroma_qp_offset=-2 / threads=6 / sliced_threads=0 / nr=0 / decimate=0 / interlaced=0 / bluray_compat=0 / constrained_intra=0 / fgo=0 / bframes=8 / b_pyramid=2 / b_adapt=2 / b_bias=0 / direct=1 / weightb=1 / open_gop=0 / weightp=2 / keyint=250 / keyint_min=23 / scenecut=40 / intra_refresh=0 / rc=crf / mbtree=0 / crf=15.7 / qcomp=0.70 / qpmin=9 / qpmax=38 / qpstep=4 / ip_ratio=1.40 / pb_ratio=1.30 / aq=1:0.90
Default : Yes
Forced : No
Audio
ID : 2
Format : AC-3
Format/Info : Audio Coding 3
Mode extension : CM (complete main)
Format settings, Endianness : Big
Codec ID : A_AC3
Duration : 23mn 56s
Bit rate mode : Constant
Bit rate : 640 Kbps
Channel(s) : 6 channels
Channel positions : Front: L C R, Side: L R, LFE
Sampling rate : 48.0 KHz
Bit depth : 16 bits
Compression mode : Lossy
Stream size : 110 MiB (15%)
Language : Japanese
Default : Yes
Forced : No

Создавать темы 14-Июн-2013 15:00

[Профиль]  [ЛС] 

Rambotnik

Стаж: 6 лет 6 месяцев

Сообщений: 1274

Симпатии: 81

Хороший сериал. Очень похож на первый сезон ёрмунганда, но динамичнее)

Создавать темы 14-Июн-2013 20:44

[Профиль]  [ЛС] 

Inquisitor

Стаж: 5 лет 9 месяцев

Сообщений: 133

Симпатии: 6

Rambotnik, лучше ёрмунганда ?

Создавать темы 14-Июн-2013 21:07

[Профиль]  [ЛС] 

Rambotnik

Стаж: 6 лет 6 месяцев

Сообщений: 1274

Симпатии: 81

Ну как сказать ... в какой-то мере да, с другой стороны, юмористическая составляющая здесь отсутствует. Сериал можно охарактеризовать как остросюжетный боевик.

Создавать темы 14-Июн-2013 21:22

[Профиль]  [ЛС] 

Ershaker

Стаж: 5 лет 2 месяца

Сообщений: 35

Ребята помогите с раздачей

Создавать темы 08-Сен-2013 09:27

[Профиль]  [ЛС] 

Vergil

Стаж: 6 лет 3 месяца

Сообщений: 689

Rambotnik, я бы сказал по духу ближе к Phantom: Requiem for the Phantom, ну или же Black lagoon чем Ёрмунганд

Создавать темы 08-Сен-2013 19:16

[Профиль]  [ЛС] 
Показать сообщения:    
Ответить на тему

Текущее время: 24-Окт 09:06

Часовой пояс: UTC + 5



Вы не можете начинать темы
Вы не можете отвечать на сообщения
Вы не можете редактировать свои сообщения
Вы не можете удалять свои сообщения
Вы не можете голосовать в опросах
Вы не можете прикреплять файлы к сообщениям
Вы не можете скачивать файлы