Кризис - Лучшее Время Для роста [2009 г., Видео Тренинг, DVDRip]

Ответить на тему
 

Habibullo ®

Стаж: 5 лет 8 месяцев

Сообщений: 72

Симпатии: 16

Кризис - Лучшее Время Для роста
Год выпуска: 2009
Страна: Россия
Жанр: Видео Тренинг
Продолжительность: серия 01:33:25
Сайт: www.kachalov.com
Описание: В кризис резко уменьшается количество клиентов. Для выживания компании становится важным быстро переориентироваться, выделить новые сегмента клиентов и сформировать поток клиентов. О том, как за несколько недель приобрести много новых клиентов и рассказывается в этом обзоре.
Качество: DVDRip
Формат: AVI
Видео кодек: DivX
Аудио кодек: MP3
Видео: DivX 5 720x400 25.00fps
Аудио: MPEG Audio Layer 3 48000Hz stereo 128Kbps

MI

Format : AVI
Format/Info : Audio Video Interleave
File size : 1.37 GiB
Duration : 1h 33mn
Overall bit rate : 2 098 Kbps
Writing application : VirtualDubMod 1.5.10.2 (build 2542/release)
Writing library : VirtualDubMod build 2542/release
Video #0
ID : 0
Format : MPEG-4 Visual
Format settings, BVOP : 1
Format settings, QPel : No
Format settings, GMC : No warppoints
Format settings, Matrix : Default (H.263)
Muxing mode : Packed bitstream
Codec ID : DX50
Codec ID/Hint : DivX 5
Duration : 1h 33mn
Bit rate : 1 960 Kbps
Width : 720 pixels
Height : 400 pixels
Display aspect ratio : 16:9
Frame rate : 25.000 fps
Color space : YUV
Chroma subsampling : 4:2:0
Bit depth : 8 bits
Scan type : Progressive
Compression mode : Lossy
Bits/(Pixel*Frame) : 0.272
Stream size : 1.28 GiB (93%)
Writing library : DivX 6.8.5 (UTC 2009-08-20)
Audio #1
ID : 1
Format : MPEG Audio
Format version : Version 1
Format profile : Layer 3
Mode : Joint stereo
Mode extension : MS Stereo
Codec ID : 55
Codec ID/Hint : MP3
Duration : 1h 33mn
Bit rate mode : Constant
Bit rate : 128 Kbps
Channel(s) : 2 channels
Sampling rate : 48.0 KHz
Compression mode : Lossy
Stream size : 85.5 MiB (6%)
Alignment : Split accross interleaves
Interleave, duration : 40 ms (1.00 video frame)
Interleave, preload duration : 500 ms

Скриншоты



Последний раз редактировалось: Habibullo (2013-12-02 15:01), всего редактировалось 1 раз

Создавать темы 14-Июн-2013 15:01

[Профиль]  [ЛС] 

TIMURKO

Стаж: 5 лет 8 месяцев

Сообщений: 42

Вы в какое время раздаете?

Создавать темы 16-Июн-2013 10:08

[Профиль]  [ЛС] 

Habibullo ®

Стаж: 5 лет 8 месяцев

Сообщений: 72

Симпатии: 16

Если у вас не Beeline то круглосуточно и проверьте какие IP адреса в фильтре !!!

Создавать темы 16-Июн-2013 18:23

[Профиль]  [ЛС] 

scela

Стаж: 3 года 10 месяцев

Сообщений: 84

Симпатии: 3

Если у вас не Beeline то круглосуточно и проверьте какие IP адреса в фильтре !!!
У меня не билайн, узонлайн если это имеет значение, какие именно адреса проверить, что должно быть или чего быть не должно, фильтры я не ставил т.к. анлим, все фильтры по умолчанию ? Все отлично раздавалось\скачивалось, скачал 46%, потом глухо уже несколько дней.

Создавать темы 28-Янв-2014 20:57

[Профиль]  [ЛС] 
Показать сообщения:    
Ответить на тему

Текущее время: 23-Сен 10:39

Часовой пояс: UTC + 5



Вы не можете начинать темы
Вы не можете отвечать на сообщения
Вы не можете редактировать свои сообщения
Вы не можете удалять свои сообщения
Вы не можете голосовать в опросах
Вы не можете прикреплять файлы к сообщениям
Вы не можете скачивать файлы