Джек – покоритель великанов / Jack the Giant Slayer (Брайан Сингер) [2013 г., фэнтези, приключения, BDRip-AVC]

Ответить на тему
 

ZeroX ®

Стаж: 5 лет 6 месяцев

Сообщений: 146

Симпатии: 3

Джек – покоритель великанов / Jack the Giant Slayer
«If you think you know the story, you don't know Jack»
-
Год выпуска: 2013
Страна: США
Режиссер: Брайан Сингер
Жанр: фэнтези, приключения
Продолжительность: 1:54:21
Перевод: Профессиональный (полное дублирование)(Чистый Звук) + Оригинальная Звуковая Дорожка-В ролях: Николас Холт, Элинор Томлинсон, Юэн МакГрегор, Стэнли Туччи, Эдди Марсан, Юэн Бремнер, Иэн МакШейн, Кристофер Фэйрбэнк, Саймон Лоу, Мингус Джонстон
Описание: История начинается с похищения принцессы, что грозит нарушить хрупкий мир между людьми и великанами. Юный фермер возглавляет вылазку в царство гигантов в надежде спасти девушку.-Рейтинги:
Кинопоиск.Ru: 6.658 (12 679)
IMDb.com: 6.40 (28 327)
MPAA: детям до 13 лет просмотр не желателен-Качество: BDRip-AVC
Формат: MKV
Видео кодек: x264
Видео: AVC, 1056x440, 2747 kbps, 23.976 fps
Аудио кодек: AC3
Аудио #1: AC-3, 448 kbps, 6 ch, 48KHz - Профессиональный (полное дублирование)(Чистый Звук)
Аудио #2: AC-3, 448 kbps, 6 ch, 48KHz - Оригинальная Звуковая Дорожка-Доп. Инфо: Сохранены оригинальные чаптеры (Как на Blu-Ray)
-

MediaInfo

General
Format : Matroska
Format version : Version 4 / Version 2
File size : 2.91 GiB
Duration : 1h 54mn
Overall bit rate : 3 644 Kbps
Encoded date : UTC 2013-06-14 10:16:58
Writing application : mkvmerge v6.0.0 ('Coming Up For Air') built on Feb 3 2013 18:12:30
Writing library : libebml v1.3.0 + libmatroska v1.4.0
Video #1
ID : 1
Format : AVC
Format/Info : Advanced Video Codec
Format profile : High@L4.1
Format settings, CABAC : Yes
Format settings, ReFrames : 10 frames
Codec ID : V_MPEG4/ISO/AVC
Duration : 1h 54mn
Bit rate : 2 747 Kbps
Width : 1 056 pixels
Height : 440 pixels
Display aspect ratio : 2.40:1
Frame rate mode : Constant
Frame rate : 23.976 fps
Color space : YUV
Chroma subsampling : 4:2:0
Bit depth : 8 bits
Scan type : Progressive
Bits/(Pixel*Frame) : 0.247
Stream size : 2.14 GiB (73%)
Writing library : x264 core 125 r2208 d9d2288
Encoding settings : cabac=1 / ref=10 / deblock=1:-2:-1 / analyse=0x3:0x133 / me=umh / subme=11 / psy=1 / psy_rd=1.06:0.01 / mixed_ref=1 / me_range=48 / chroma_me=1 / trellis=2 / 8x8dct=1 / cqm=0 / deadzone=21,11 / fast_pskip=0 / chroma_qp_offset=-3 / threads=9 / lookahead_threads=1 / sliced_threads=0 / nr=0 / decimate=1 / interlaced=0 / bluray_compat=0 / constrained_intra=0 / bframes=11 / b_pyramid=2 / b_adapt=2 / b_bias=0 / direct=3 / weightb=1 / open_gop=0 / weightp=2 / keyint=240 / keyint_min=23 / scenecut=40 / intra_refresh=0 / rc_lookahead=150 / rc=2pass / mbtree=1 / bitrate=2747 / ratetol=1.0 / qcomp=0.70 / qpmin=0 / qpmax=69 / qpstep=4 / cplxblur=20.0 / qblur=0.5 / vbv_maxrate=20000 / vbv_bufsize=20000 / nal_hrd=none / ip_ratio=1.35 / aq=1:0.60
Default : Yes
Forced : No
Audio #2
ID : 2
Format : AC-3
Format/Info : Audio Coding 3
Mode extension : CM (complete main)
Format settings, Endianness : Big
Codec ID : A_AC3
Duration : 1h 54mn
Bit rate mode : Constant
Bit rate : 448 Kbps
Channel(s) : 6 channels
Channel positions : Front: L C R, Side: L R, LFE
Sampling rate : 48.0 KHz
Bit depth : 16 bits
Compression mode : Lossy
Stream size : 366 MiB (12%)
Language : Russian
Default : Yes
Forced : No
Audio #3
ID : 3
Format : AC-3
Format/Info : Audio Coding 3
Mode extension : CM (complete main)
Format settings, Endianness : Big
Codec ID : A_AC3
Duration : 1h 54mn
Bit rate mode : Constant
Bit rate : 448 Kbps
Channel(s) : 6 channels
Channel positions : Front: L C R, Side: L R, LFE
Sampling rate : 48.0 KHz
Bit depth : 16 bits
Compression mode : Lossy
Stream size : 366 MiB (12%)
Language : English
Default : No
Forced : No
Text #4
ID : 4
Format : UTF-8
Codec ID : S_TEXT/UTF8
Codec ID/Info : UTF-8 Plain Text
Default : Yes
Forced : No
Menu
00:00:00.000 : en:00:00:00.000
00:10:21.371 : en:00:10:21.371
00:19:23.746 : en:00:19:23.746
00:29:52.207 : en:00:29:52.207
00:38:55.375 : en:00:38:55.375
00:49:24.879 : en:00:49:24.879
00:59:35.489 : en:00:59:35.489
01:09:26.287 : en:01:09:26.287
01:20:39.168 : en:01:20:39.168
01:29:51.303 : en:01:29:51.303
01:39:02.812 : en:01:39:02.812
01:45:57.726 : en:01:45:57.726

Скриншоты

Создавать темы 14-Июн-2013 16:06

[Профиль]  [ЛС] 
Показать сообщения:    
Ответить на тему

Текущее время: 24-Сен 13:36

Часовой пояс: UTC + 5



Вы не можете начинать темы
Вы не можете отвечать на сообщения
Вы не можете редактировать свои сообщения
Вы не можете удалять свои сообщения
Вы не можете голосовать в опросах
Вы не можете прикреплять файлы к сообщениям
Вы не можете скачивать файлы