Охотники на ведьм / Hansel & Gretel: Witch Hunters (Томми Виркола / Tommy Wirkola) [2013 г., Ужасы, Фэнтези, Боевик, BDRip][Лицензия]

Ответить на тему
 

fox83 ®

Стаж: 5 лет 1 месяц

Сообщений: 8

Охотники на ведьм / Hansel & Gretel: Witch Hunters Год выпуска: 2013
Страна: США, Германия
Жанр: Ужасы, Фэнтези, Боевик
Продолжительность: 01:27:56
Перевод: Профессиональный (полное дублирование)[Лицензия]
Режиссер: Томми Виркола / Tommy Wirkola
В ролях:
Hansel - Джереми Реннер (Илья Исаев)
Gretel - Джемма Артертон (Ирина Киреева)
Muriel - Фамке Янссен (Ольга Плетнёва)
Mina - Пихла Виитала
Edward - Дерек Мирс
Edward, озвучка - Робин Аткин Даунс
Horned Witch - Ингрид Болсай Бердал
Red Haired Witch - Джоэнна Кулиг
Ben - Томас Манн (Николай Быстров)
Sheriff Berringer - Петер Стормаре (Андрей Данилюк)
Jackson - Бьорн Сундквист (Алексей Борзунов)
Mayor Engleman - Райнер Бок (Андрей Казанцев)
Описание: Описание: Едва не погибнув в лапах ужасной ведьмы, Ганзель и Гретель стали только сильнее. Одержимые местью, они ведут отчаянную борьбу со злом, даже не подозревая, что их поджидает нечто куда более опасное… собственное прошлое…
Качество: BDRip
Формат: MKV
Формат 3D: Half OverUnder / Вертикальная анаморфная стереопара
Порядок ракурсов: левый ракурс первый
Видео кодек: H.26x
Аудио кодек: AC3
Видео: AVC / 23,976 fps / 1920х1080p / 11.5 Mbps
Аудио: #1 - Русский / AC3 / 48 KHz / 5.1 ch / 640 Kbps (Дубляж - BD 2D)
#2 - Английский / AC3 / 48 KHz / 5.1 ch / 640 Kbps (Original)
СубтитрыВнешние (SRT UTF-8):
#1 - Русские Полные
#2 - Украинские Полные
#3 - English Full

Медиаинфо

General
Unique ID : 188247649409170743806894574276163587690 (0x8D9F2DB1E5F97441B23881D87D26CE6A)
Complete name :Hansel&Gretel.WitchHunters(3D)2013(Ash61).mkv
Format : Matroska
Format version : Version 2
File size : 7.91 GiB
Duration : 1h 27mn
Overall bit rate : 12.9 Mbps
Movie name : Охотники на ведьм / Hansel & Gretel: Witch Hunters (3D) 2013 (by Ash61)
Encoded date : UTC 2013-05-16 03:14:32
Writing application : mkvmerge v5.8.0 ('No Sleep / Pillow') built on Sep 2 2012 15:37:04
Writing library : libebml v1.2.3 + libmatroska v1.3.0
Video #1
ID : 1
Format : AVC
Format/Info : Advanced Video Codec
Format profile : [email protected]
Format settings, CABAC : Yes
Format settings, ReFrames : 4 frames
Codec ID : V_MPEG4/ISO/AVC
Duration : 1h 27mn
Bit rate : 11.5 Mbps
Width : 1 920 pixels
Height : 1 080 pixels
Display aspect ratio : 16:9
Frame rate mode : Constant
Frame rate : 23.976 fps
Color space : YUV
Chroma subsampling : 4:2:0
Bit depth : 8 bits
Scan type : Progressive
Bits/(Pixel*Frame) : 0.232
Stream size : 7.08 GiB (90%)
Title : BDRip by Ash61
Writing library : x264 core 129 r2245 bc13772
Encoding settings : cabac=1 / ref=4 / deblock=1:-3:-3 / analyse=0x3:0x113 / me=umh / subme=9 / psy=1 / psy_rd=1.00:0.15 / mixed_ref=1 / me_range=32 / chroma_me=1 / trellis=2 / 8x8dct=1 / cqm=0 / deadzone=21,11 / fast_pskip=1 / chroma_qp_offset=-3 / threads=12 / lookahead_threads=2 / sliced_threads=0 / nr=0 / decimate=1 / interlaced=0 / bluray_compat=0 / constrained_intra=0 / bframes=7 / b_pyramid=2 / b_adapt=2 / b_bias=0 / direct=3 / weightb=1 / open_gop=0 / weightp=2 / keyint=250 / keyint_min=23 / scenecut=40 / intra_refresh=0 / rc_lookahead=60 / rc=crf / mbtree=1 / crf=17.0 / qcomp=0.70 / qpmin=0 / qpmax=69 / qpstep=4 / vbv_maxrate=40000 / vbv_bufsize=30000 / crf_max=0.0 / nal_hrd=none / frame-packing=4 / ip_ratio=1.40 / aq=1:0.70
Language : English
Default : Yes
Forced : No
Audio #2
ID : 2
Format : AC-3
Format/Info : Audio Coding 3
Mode extension : CM (complete main)
Format settings, Endianness : Big
Codec ID : A_AC3
Duration : 1h 27mn
Bit rate mode : Constant
Bit rate : 448 Kbps
Channel(s) : 6 channels
Channel positions : Front: L C R, Side: L R, LFE
Sampling rate : 48.0 KHz
Bit depth : 16 bits
Compression mode : Lossy
Stream size : 282 MiB (3%)
Title : Дубляж - Чистый звук
Language : Russian
Default : Yes
Forced : Yes
Audio #3
ID : 3
Format : AC-3
Format/Info : Audio Coding 3
Mode extension : CM (complete main)
Format settings, Endianness : Big
Codec ID : A_AC3
Duration : 1h 27mn
Bit rate mode : Constant
Bit rate : 640 Kbps
Channel(s) : 6 channels
Channel positions : Front: L C R, Side: L R, LFE
Sampling rate : 48.0 KHz
Bit depth : 16 bits
Compression mode : Lossy
Stream size : 403 MiB (5%)
Title : Original - BD3D
Language : English
Default : No
Forced : No

Скриншоты



Создавать темы 14-Июн-2013 23:38

[Профиль]  [ЛС] 

ElviS Jr

Стаж: 4 года 10 месяцев

Сообщений: 28

Салам Алейкум. Fox83 тебе просьба увеличь скорость раздачи. 3-4 кб.сек у меня

Создавать темы 08-Ноя-2013 15:01

[Профиль]  [ЛС] 

ElviS Jr

Стаж: 4 года 10 месяцев

Сообщений: 28

Встаньте на Раздачу!!! Скорости ваще нет!!!

Создавать темы 08-Ноя-2013 19:12

[Профиль]  [ЛС] 

lisovskii_yura

Стаж: 4 года 5 месяцев

Сообщений: 17

Симпатии: 1

Дайте раздачу ,плиз!!!!

Создавать темы 24-Ноя-2013 08:58

[Профиль]  [ЛС] 

TAMIRLAN

Стаж: 4 года

Сообщений: 12

Симпатии: 2

Станьте на раздачу пожалуйста!!!

Создавать темы 01-Дек-2013 15:33

[Профиль]  [ЛС] 

timspecial

Стаж: 4 года

Сообщений: 2

Благодарю за релиз. дайте скорости

Создавать темы 05-Дек-2013 01:50

[Профиль]  [ЛС] 

NEO_texas

Стаж: 5 лет 10 месяцев

Сообщений: 12

Симпатии: 1

хе хе мой релиз, помогу с раздачей!!

Создавать темы 05-Дек-2013 10:49

[Профиль]  [ЛС] 

qwer123456

Стаж: 4 года 5 месяцев

Сообщений: 18

Симпатии: 1

ну дайте скорости... 16 сидов же

Создавать темы 19-Фев-2014 22:04

[Профиль]  [ЛС] 

sobir_xirurg

Стаж: 4 года 10 месяцев

Сообщений: 3

в

Создавать темы 20-Май-2014 11:19

[Профиль]  [ЛС] 
Показать сообщения:    
Ответить на тему

Текущее время: 17-Дек 22:38

Часовой пояс: UTC + 5



Вы не можете начинать темы
Вы не можете отвечать на сообщения
Вы не можете редактировать свои сообщения
Вы не можете удалять свои сообщения
Вы не можете голосовать в опросах
Вы не можете прикреплять файлы к сообщениям
Вы не можете скачивать файлы