Приходите завтра (Евгений Ташков) [1962 г., Комедия, TVRip]

Ответить на тему
 

nico3500 ®

Стаж: 4 года 9 месяцев

Сообщений: 99

Симпатии: 6

Приходите завтра
Год выпуска: 1962
Жанр: Комедия
Продолжительность: 01:32:41
Режиссер: Евгений Ташков
В ролях: Екатерина Савинова, Анатолий Папанов, Юрий Горобец, Антонина Максимова, Надежда Животова, Александр Ширвиндт, Юрий Белов, Борис Бибиков, Борис Коковкин, Зинаида Дьяконова, Александра Денисова, Евгений Ташков, Михаил Кононов
Описание: Фрося Бурлакова приезжает в Москву из глухой сибирской деревни поступать в Институт имени Гнесиных. Она мечтает стать певицей. Однако, выясняется, что она опоздала — прием уже закончен. Проведя в институте несколько дней, Фрося постоянно сталкивается с профессором Соколовым, который наконец соглашается её прослушать…
Доп. информация: Сценарий фильма написан режиссёром совместно с супругой Е.Ф.Савиновой и включает некоторые факты автобиографии актрисы. После выхода в прокат фильм посмотрели 15,4 миллиона зрителей. В фильме "приходите завтра" Надежду Животову (домработницу) озвучила Екатерина Савинова, а Анатолия Папанова (скульптора) сам Евгений Ташков. Потому что у Папанова был слишком "грубый" голос для интеллигента, а у Животовой наоборот слишком мягкий для пролетариата.
Качество: TVRip
Формат: AVI
Видео кодек: XviD
Аудио кодек: AC3
Видео: Xvid 640x464 25fps
Аудио: Dolby AC3 48000Hz stereo 192kbps
MI:
Общее
Полное имя : D:\Torrent\Приходите завтра_1.45\Приходите завтра_1.45.avi
Формат : AVI
Формат/Информация : Audio Video Interleave
Размер файла : 1,46 Гбайт
Продолжительность : 1 ч. 32 м.
Общий поток : 2250 Кбит/сек
Программа кодирования : VirtualDubModRus 1.5.10.2 (build 2540/release)
Библиотека кодирования : VirtualDubMod build 2540/release
Видео
Идентификатор : 0
Формат : MPEG-4 Visual
Профиль формата : Advanced [email protected]
Параметр BVOP формата : 1
Параметр QPel формата : Нет
Параметр GMC формата : Без точки перехода
Параметр матрицы формата : Выборочная
Идентификатор кодека : XVID
Идентификатор кодека/Подсказка : XviD
Продолжительность : 1 ч. 32 м.
Битрейт : 2049 Кбит/сек
Ширина : 640 пикселей
Высота : 464 пикселя
Соотношение сторон : 1,379
Частота кадров : 25,000 кадров/сек
Цветовое пространство : YUV
Субдискретизация насыщенности : 4:2:0
Битовая глубина : 8 бит
Тип развёртки : Прогрессивная
Метод сжатия : С потерями
Бит/(Пиксели*Кадры) : 0.276
Размер потока : 1,33 Гбайт (91%)
Библиотека кодирования : XviD 64
Аудио
Идентификатор : 1
Формат : AC-3
Формат/Информация : Audio Coding 3
Расширение режима : CM (complete main)
Идентификатор кодека : 2000
Продолжительность : 1 ч. 32 м.
Вид битрейта : Постоянный
Битрейт : 192 Кбит/сек
Каналы : 2 канала
Расположение каналов : Front: L R
Частота : 48,0 КГц
Битовая глубина : 16 бит
Метод сжатия : С потерями
Размер потока : 127 Мбайт (9%)
Выравнивание : Разделение по промежуткам
Продолжительность промежутка : 40 мс. (1,00 видеокадр)
Время предзагрузки промежутка : 500 мс.

Скриншоты



Последний раз редактировалось: nico3500 (2013-06-15 17:04), всего редактировалось 5 раз(а)

Создавать темы 15-Июн-2013 15:02

[Профиль]  [ЛС] 

СтАсИкОс

Стаж: 6 лет 9 месяцев

Сообщений: 314

Симпатии: 20

Исправьте год 1962

Создавать темы 15-Июн-2013 15:46

[Профиль]  [ЛС] 

Robot-IX

Стаж: 5 лет 6 месяцев

Сообщений: 223

Симпатии: 9

Качество: DVDRip как эт может быть?... стоит логатип Первого канала!
а так, нормалёк . Фильм добрый!

Создавать темы 15-Июн-2013 15:55

[Профиль]  [ЛС] 

СтАсИкОс

Стаж: 6 лет 9 месяцев

Сообщений: 314

Симпатии: 20

Да и качество на TVRip поправьте
Также можно вставить медиа инфо

MI

Общее
Полное имя : D:\Torrent\Приходите завтра_1.45\Приходите завтра_1.45.avi
Формат : AVI
Формат/Информация : Audio Video Interleave
Размер файла : 1,46 Гбайт
Продолжительность : 1 ч. 32 м.
Общий поток : 2250 Кбит/сек
Программа кодирования : VirtualDubModRus 1.5.10.2 (build 2540/release)
Библиотека кодирования : VirtualDubMod build 2540/release
Видео
Идентификатор : 0
Формат : MPEG-4 Visual
Профиль формата : Advanced [email protected]
Параметр BVOP формата : 1
Параметр QPel формата : Нет
Параметр GMC формата : Без точки перехода
Параметр матрицы формата : Выборочная
Идентификатор кодека : XVID
Идентификатор кодека/Подсказка : XviD
Продолжительность : 1 ч. 32 м.
Битрейт : 2049 Кбит/сек
Ширина : 640 пикселей
Высота : 464 пикселя
Соотношение сторон : 1,379
Частота кадров : 25,000 кадров/сек
Цветовое пространство : YUV
Субдискретизация насыщенности : 4:2:0
Битовая глубина : 8 бит
Тип развёртки : Прогрессивная
Метод сжатия : С потерями
Бит/(Пиксели*Кадры) : 0.276
Размер потока : 1,33 Гбайт (91%)
Библиотека кодирования : XviD 64
Аудио
Идентификатор : 1
Формат : AC-3
Формат/Информация : Audio Coding 3
Расширение режима : CM (complete main)
Идентификатор кодека : 2000
Продолжительность : 1 ч. 32 м.
Вид битрейта : Постоянный
Битрейт : 192 Кбит/сек
Каналы : 2 канала
Расположение каналов : Front: L R
Частота : 48,0 КГц
Битовая глубина : 16 бит
Метод сжатия : С потерями
Размер потока : 127 Мбайт (9%)
Выравнивание : Разделение по промежуткам
Продолжительность промежутка : 40 мс. (1,00 видеокадр)
Время предзагрузки промежутка : 500 мс.

Создавать темы 15-Июн-2013 16:42

[Профиль]  [ЛС] 

nico3500 ®

Стаж: 4 года 9 месяцев

Сообщений: 99

Симпатии: 6

Почему 1962??? Вот цитата из всеми "любимой" википедии «Приходите завтра…» — комедийный художественный фильм, поставленный в 1963 году режиссёром Евгением Ташковым. Сценарий написан режиссёром совместно с супругой Е. Ф. Савиновой и включает некоторые факты автобиографии актрисы. После выхода в прокат фильм посмотрели 15,4 миллиона зрителей. А вот ссылка http://ru.wikipedia.org/wiki/%D0%9F%D1%80%D0%B8%D1%...0%D0%B0%E2%80%A6 Качество исправил. За MI спасибо mb

Создавать темы 15-Июн-2013 16:51

[Профиль]  [ЛС] 

СтАсИкОс

Стаж: 6 лет 9 месяцев

Сообщений: 314

Симпатии: 20

Кто сказал, что википедия надежный источник? Кинопоиску я больше доверяю) Да и во всех источниках, кроме википедии указан 1962 год, поправьте в шапке качество и год.

Создавать темы 15-Июн-2013 16:59

[Профиль]  [ЛС] 

Ирина

Стаж: 3 года 9 месяцев

Сообщений: 57

Симпатии: 11

Это мой один из самых любимых фильмов. Спасибо!

Создавать темы 21-Янв-2014 04:18

[Профиль]  [ЛС] 
Показать сообщения:    
Ответить на тему

Текущее время: 21-Окт 13:42

Часовой пояс: UTC + 5



Вы не можете начинать темы
Вы не можете отвечать на сообщения
Вы не можете редактировать свои сообщения
Вы не можете удалять свои сообщения
Вы не можете голосовать в опросах
Вы не можете прикреплять файлы к сообщениям
Вы не можете скачивать файлы