Закрытая Школа Все Сезоны 1-4 из (4) 2011-2012 [2011 г., Триллер Драма Детектив, SATRip]

Страницы :  1, 2  След.

Ответить на тему
 

Pika4u ®

Стаж: 4 года 3 месяца

Сообщений: 32

Симпатии: 7

Закрытая Школа Все Сезоны 1-4 из (4) 2011-2012
Слоган: Выпускного не Будет!!
Год выпуска: 2011 - 2012
Страна: Россия
Жанр: Триллер Драма Детектив
Продолжительность: по х ~00:45:55:00~
Режиссер: Олег Асадулин, Константин Статский, Андрей Записов,
В Главных Ролях: Юлия Агафонова
Евгений Березовский
Луиза-Габриэла Бровина
Иван Гордиенко
Алина Васильева
Виталий Емашов
Марина Казанкова
Алексей Коряков
Татьяна Космачева
Антон Хабаров
Описание: Сериал рассказывает о жизни учеников и преподавателей элитной школы-интерната, расположенной в старинной усадьбе посреди мрачного, но живописного леса. В их замкнутом мире все переживания намного острее, чем в обычной школьной жизни. Несмотря на внешнее благополучие, ребята, оторванные от родного дома, очень ранимы и зачастую одиноки. По вечерам они рассказывают друг другу страшные легенды о лесе, глухой стеной окружающем их школу, говорят, будто в нем водятся странные существа и бесследно пропадают люди. Очень скоро ребята узнают, что правда гораздо страшнее легенд.
Качество: SATRip - IPTvRIP
Формат: AVI
Видео кодек: XviD
Аудио кодек: MP3
Видео: Avi (Xvid) 640x352 от 800 до 1200++ kb/s 25.00fps
Аудио: MP3 44100Hz stereo 128kbps

Скриншоты С Каждого Сезона по 1




Медиа Инфо

General
Complete name : X:\Сериалы Разные\Закрытая Школа ( Драма Молодежный )\Закрытая Школа\01-sezon\Zakritaya.Shkola.07.SATRip.avi
Format : AVI
Format/Info : Audio Video Interleave
File size : 395 MiB
Duration : 47mn 42s
Overall bit rate : 1 159 Kbps
Writing application : MEncoder SVN-r33883(20110719-gcc4.5.2)
Writing library : MPlayer
Video
ID : 0
Format : MPEG-4 Visual
Format profile : Advanced [email protected]
Format settings, BVOP : 2
Format settings, QPel : No
Format settings, GMC : No warppoints
Format settings, Matrix : Default (H.263)
Codec ID : XVID
Codec ID/Hint : XviD
Duration : 47mn 42s
Bit rate : 1 019 Kbps
Width : 640 pixels
Height : 352 pixels
Display aspect ratio : 16:9
Original display aspect ratio : 16:9
Frame rate : 25.000 fps
Color space : YUV
Chroma subsampling : 4:2:0
Bit depth : 8 bits
Scan type : Progressive
Compression mode : Lossy
Bits/(Pixel*Frame) : 0.181
Stream size : 348 MiB (88%)
Writing library : XviD 1.2.1 (UTC 2008-12-04)
Audio
ID : 1
Format : MPEG Audio
Format version : Version 1
Format profile : Layer 3
Mode : Joint stereo
Mode extension : MS Stereo
Codec ID : 55
Codec ID/Hint : MP3
Duration : 47mn 42s
Bit rate mode : Constant
Bit rate : 128 Kbps
Channel(s) : 2 channels
Sampling rate : 44.1 KHz
Compression mode : Lossy
Delay relative to video : 40ms
Stream size : 43.7 MiB (11%)
Alignment : Aligned on interleaves
Interleave, duration : 26 ms (0.65 video frame)
Interleave, preload duration : 522 ms
Writing library : LAME3.98.4ЄЄЄЄЄЄЄЄЄЄ

Создавать темы 15-Июн-2013 21:37

[Профиль]  [ЛС] 

markvova

Стаж: 4 года 6 месяцев

Сообщений: 5

Почему вместо некоторых серий закрытой школы 2-го сезона есть серии сериала Универ. Большая просьба проверить!

Создавать темы 16-Июн-2013 17:24

[Профиль]  [ЛС] 

Pika4u ®

Стаж: 4 года 3 месяца

Сообщений: 32

Симпатии: 7

нету там некакого Универа я сам лично по каждый серии проверял, Иногда бывает когда нажимаете на само фильм до оканчании скачки там картинки показовают разные, это глюк Такой

Создавать темы 17-Июн-2013 10:00

[Профиль]  [ЛС] 

markvova

Стаж: 4 года 6 месяцев

Сообщений: 5

ну не знаю вот например 33 серия 2-го сезона точно Универ,я проверял...

Создавать темы 18-Июн-2013 13:57

[Профиль]  [ЛС] 

Pika4u ®

Стаж: 4 года 3 месяца

Сообщений: 32

Симпатии: 7

ты скачай до конца потом увидешь-)

Создавать темы 18-Июн-2013 19:06

[Профиль]  [ЛС] 

markvova

Стаж: 4 года 6 месяцев

Сообщений: 5

Уже второй день не качает закрытая школа,пожалуйста дайте скачать до конца....

Создавать темы 24-Июн-2013 12:21

[Профиль]  [ЛС] 

Pika4u ®

Стаж: 4 года 3 месяца

Сообщений: 32

Симпатии: 7

Сори я на пару дней уезжал поэтому не смог

Создавать темы 26-Июн-2013 22:16

[Профиль]  [ЛС] 

Тёмkа-91

Стаж: 5 лет 7 месяцев

Сообщений: 88

Pika4u, в третьем сезоне 44 серии, почему в раздаче только 40?

Создавать темы 09-Авг-2013 11:24

[Профиль]  [ЛС] 

Vovanchik

Стаж: 5 лет 7 месяцев

Сообщений: 5

Сиды куда пропали ?ппц не успел докачать,вернитесь на раздачу!

Создавать темы 24-Сен-2013 16:02

[Профиль]  [ЛС] 

MaKs_KZ

Стаж: 5 лет 9 месяцев

Сообщений: 55

Симпатии: 3

Скорости плз

Создавать темы 25-Окт-2013 13:39

[Профиль]  [ЛС] 

sasorik

Стаж: 4 года 1 месяц

Сообщений: 5

Народ встанте на раздачу а то я с 0.1 кб/с 300 лет качать буду)

Создавать темы 24-Ноя-2013 10:46

[Профиль]  [ЛС] 

Суха

Стаж: 5 лет 5 месяцев

Сообщений: 59

Симпатии: 3

дай те скорости!

Создавать темы 27-Ноя-2013 16:03

[Профиль]  [ЛС] 

firefox33

Стаж: 6 лет 2 месяца

Сообщений: 28

Встаньте на раздачу кому не сложно )

Создавать темы 04-Дек-2013 20:06

[Профиль]  [ЛС] 

Суха

Стаж: 5 лет 5 месяцев

Сообщений: 59

Симпатии: 3

нету 41-44 серий 3 сезона

Создавать темы 15-Дек-2013 07:51

[Профиль]  [ЛС] 

marusya

Стаж: 6 лет 4 месяца

Сообщений: 9

действительно, добавьте эти 4 серии, а то скачок получается. спасибо

Создавать темы 20-Дек-2013 21:00

[Профиль]  [ЛС] 
Показать сообщения:    
Ответить на тему

Текущее время: 21-Авг 00:24

Часовой пояс: UTC + 5



Вы не можете начинать темы
Вы не можете отвечать на сообщения
Вы не можете редактировать свои сообщения
Вы не можете удалять свои сообщения
Вы не можете голосовать в опросах
Вы не можете прикреплять файлы к сообщениям
Вы не можете скачивать файлы