Пленный (Алексей Учитель) [2008 г., Драма, военный, DVDRip]

Ответить на тему
 

Evidence ®

Стаж: 4 года 7 месяцев

Сообщений: 7

Симпатии: 1

-Пленный- Год выпуска: 2008
Жанр: Драма, военный
Продолжительность: 01:20:20-Режиссер: Алексей Учитель-В ролях: Юлия Пересильд,
Вячеслав Крикунов,
Петр Логачев,
Ираклий Мсхалаиа,
Сергей Уманов,
Тагир Рахимов,
Лариса Шамсадова,
Светлана Дорохина,
Иван Косичкин,
Дагун Омаев-Описание: Кавказская война. Чеченцы перекрыли дорогу, и федералам нужно заплатить за проезд. Денег или патронов нет, подкрепления ждать неоткуда, поэтому двое бывалых рядовых-старослужащих ловят пленного, чтобы им расплатиться за проезд. Груз, впрочем, оказывается более ценным и опасным, чем они думали.-Доп. информация: Зрителям, достигшим 16 лет. Сборы в России - $124 300-Качество: DVDRip
Формат: AVI
Видео кодек: XviD
Аудио кодек: AC3
Видео: 1975 Kbps, XviD, 704x368, 25.00fps
Аудио: Dolby AC3 48000Hz 6ch 448kbps

MediaInfo

Format : AVI
Format/Info : Audio Video Interleave
File size : 1.37 GiB
Duration : 1h 20mn
Overall bit rate : 2 432 Kbps
Writing application : FairUse Wizard - http://fairusewizard.com
Writing library : The best and REALLY easy backup tool
Video #0
ID : 0
Format : MPEG-4 Visual
Format profile : Advanced [email protected]
Format settings, BVOP : 1
Format settings, QPel : No
Format settings, GMC : No warppoints
Format settings, Matrix : Default (H.263)
Muxing mode : Packed bitstream
Codec ID : XVID
Codec ID/Hint : XviD
Duration : 1h 20mn
Bit rate : 1 975 Kbps
Width : 704 pixels
Height : 368 pixels
Display aspect ratio : 1.913
Frame rate : 25.000 fps
Color space : YUV
Chroma subsampling : 4:2:0
Bit depth : 8 bits
Scan type : Progressive
Compression mode : Lossy
Bits/(Pixel*Frame) : 0.305
Stream size : 1.11 GiB (81%)
Writing library : XviD 1.1.0 (UTC 2005-11-22)
Audio #1
ID : 1
Format : AC-3
Format/Info : Audio Coding 3
Mode extension : CM (complete main)
Codec ID : 2000
Duration : 1h 20mn
Bit rate mode : Constant
Bit rate : 448 Kbps
Channel(s) : 6 channels
Channel positions : Front: L C R, Side: L R, LFE
Sampling rate : 48.0 KHz
Bit depth : 16 bits
Compression mode : Lossy
Stream size : 258 MiB (18%)
Alignment : Split accross interleaves
Interleave, duration : 40 ms (1.00 video frame)
Interleave, preload duration : 500 ms

Знаете ли Вы, что

Ираклия Мсхалаи Алексей Учитель искал почти восемь месяцев. В поисках актера, способного справиться с ролью, режиссер объездил Чечню, Грузию, Сербию, Испанию, а нашел в Грузинской школе в Москве.

Скриншоты






Последний раз редактировалось: Evidence (2013-06-17 14:31), всего редактировалось 4 раз(а)

Создавать темы 15-Июн-2013 23:19

[Профиль]  [ЛС] 

Иви

Стаж: 5 лет 9 месяцев

Сообщений: 688

Симпатии: 65

разрешение видеофайла забыли указать + скриншоты разного разрешения у вас

Создавать темы 16-Июн-2013 00:51

[Профиль]  [ЛС] 

Evidence ®

Стаж: 4 года 7 месяцев

Сообщений: 7

Симпатии: 1

скритшоты сделал с видео, но получились в рамке, но одного разрешения 852 на 480. Может что-то не так делаю

Создавать темы 16-Июн-2013 07:37

[Профиль]  [ЛС] 

Иви

Стаж: 5 лет 9 месяцев

Сообщений: 688

Симпатии: 65

скритшоты сделал с видео, но получились в рамке, но одного разрешения 852 на 480. Может что-то не так делаю
в тех.данных к фильму вы указали разрешение 704x368, разрешение же скриншотов которые вы добавили 852х480 - это не одно и тоже,хотя должно быть одинаковым,скришноты нужно делать с того видеофайла который выкладываете, да и еще, продолжительность фильма желательно указывать в формате чч:мм:сс

Создавать темы 16-Июн-2013 11:30

[Профиль]  [ЛС] 

Evidence ®

Стаж: 4 года 7 месяцев

Сообщений: 7

Симпатии: 1

проверьте пожалуйста

Создавать темы 16-Июн-2013 18:59

[Профиль]  [ЛС] 

Иви

Стаж: 5 лет 9 месяцев

Сообщений: 688

Симпатии: 65

ошибка все та же, с той лишь разницей что теперь разрешение скриншотов 653x368,а не 852х480, хотя должно быть 704x368

Создавать темы 16-Июн-2013 19:14

[Профиль]  [ЛС] 

19ян73

Стаж: 5 лет 10 месяцев

Сообщений: 133

Симпатии: 2

Раздавать будем или как?

Создавать темы 16-Июн-2013 21:43

[Профиль]  [ЛС] 

СтАсИкОс

Стаж: 6 лет 9 месяцев

Сообщений: 314

Симпатии: 20

Пока сперва нужно до оформить релиз!

Создавать темы 16-Июн-2013 23:35

[Профиль]  [ЛС] 

Sirius13

Стаж: 5 лет 8 месяцев

Сообщений: 8

Кажется, решились за или как.

Создавать темы 17-Июн-2013 00:35

[Профиль]  [ЛС] 

Evidence ®

Стаж: 4 года 7 месяцев

Сообщений: 7

Симпатии: 1

ждем проверку

Создавать темы 17-Июн-2013 10:14

[Профиль]  [ЛС] 

СтАсИкОс

Стаж: 6 лет 9 месяцев

Сообщений: 314

Симпатии: 20

Опять же несовпадения разрешения видео и скриншотов!
Вы указали 704x368, а на скринах 653х368
Как сделать скриншот тут --> http://tas-ix.net/viewtopic.php?t=7193

Создавать темы 17-Июн-2013 13:15

[Профиль]  [ЛС] 

Evidence ®

Стаж: 4 года 7 месяцев

Сообщений: 7

Симпатии: 1

спасибо за помощь. но раннее делал с км плеером и получалось так как раньше. сейчас установил VLC Media Player и получилось сразу как будто

Создавать темы 17-Июн-2013 14:18

[Профиль]  [ЛС] 

Иви

Стаж: 5 лет 9 месяцев

Сообщений: 688

Симпатии: 65

спасибо за помощь. но раннее делал с км плеером и получалось так как раньше. сейчас установил VLC Media Player и получилось сразу как будто
шапку пришлось подправить
качество не TVRip, а DVDRip
аудио дорожка не 5,а 6 канальная
если у вас возникают какие то трудности с оформлением, обращайтесь - подскажем,поможем, а не пишите данные с потолка:)

Создавать темы 17-Июн-2013 14:42

[Профиль]  [ЛС] 

Evidence ®

Стаж: 4 года 7 месяцев

Сообщений: 7

Симпатии: 1

спасибо

Создавать темы 17-Июн-2013 14:44

[Профиль]  [ЛС] 

linux

Стаж: 5 лет 3 месяца

Сообщений: 26

Дайте Скорости Пожалуйста!!))
Заранее ((Большое Спасибо))!

Создавать темы 26-Июл-2013 00:42

[Профиль]  [ЛС] 
Показать сообщения:    
Ответить на тему

Текущее время: 17-Окт 12:42

Часовой пояс: UTC + 5



Вы не можете начинать темы
Вы не можете отвечать на сообщения
Вы не можете редактировать свои сообщения
Вы не можете удалять свои сообщения
Вы не можете голосовать в опросах
Вы не можете прикреплять файлы к сообщениям
Вы не можете скачивать файлы