Остров смерти / Black Rock (Кэтрин Аселтон / Katie Aselton) [2012, США, ужасы, триллер, WEB-DLRip] MVO

Ответить на тему
 

Suxrob89 ®

Стаж: 7 лет 4 месяца

Сообщений: 933

Симпатии: 564

-Остров смерти / Black Rock- Страна: США
Жанр: ужасы, триллер
Год выпуска: 2012
Продолжительность: 01:19:53
Перевод: Профессиональный (многоголосый, закадровый)
Cубтитры: нет-Режиссер: Кэтрин Аселтон / Katie Aselton-В ролях: Кэтрин Аселтон, Лэйк Белл, Кейт Босворт, Уилл Бовье, Джей Полсон, Анслем Ричардсон, Карл К. Аселтон III, Др. Карл Аселтон, Генри Барронс, Джон Дэвис-Описание: Три подруги детства решают устроить пикник на удаленном острове. Однако незапланированная встреча с агрессивно настроенными ветеранами иракской войны превращает отдых в сущий кошмар.- -Качество видео: WEB-DLRip
Формат видео: AVI
Видео: 720x384 (1.88:1), 23.976 fps, XviD build 50 ~2055 kbps avg, 0.31 bit/pixel
Аудио: 48 kHz, AC3 Dolby Digital, 3/2 (L,C,R,l,r) + LFE ch, ~384 kbps-

MediaInfo

C:\Black.rock.2012.P.WEBDLRip.1400MB.avi
General
Complete name : C:\Black.rock.2012.P.WEBDLRip.1400MB.avi
Format : AVI
Format/Info : Audio Video Interleave
File size : 1.37 GiB
Duration : 1h 19mn
Overall bit rate : 2 449 Kbps
Writing application : VirtualDubMod 1.5.10.3 | www.virtualdub-fr.org || (build 2550/release)
Writing library : VirtualDubMod build 2550/release
Video #0
ID : 0
Format : MPEG-4 Visual
Format profile : Advanced [email protected]
Format settings, BVOP : 2
Format settings, QPel : No
Format settings, GMC : No warppoints
Format settings, Matrix : Custom
Codec ID : XVID
Codec ID/Hint : XviD
Duration : 1h 19mn
Bit rate : 2 056 Kbps
Width : 720 pixels
Height : 384 pixels
Display aspect ratio : 1.85:1
Frame rate : 23.976 fps
Color space : YUV
Chroma subsampling : 4:2:0
Bit depth : 8 bits
Scan type : Progressive
Compression mode : Lossy
Bits/(Pixel*Frame) : 0.310
Stream size : 1.15 GiB (84%)
Writing library : XviD 1.2.1 (UTC 2008-12-04)
Audio #1
ID : 1
Format : AC-3
Format/Info : Audio Coding 3
Mode extension : CM (complete main)
Format settings, Endianness : Big
Codec ID : 2000
Duration : 1h 19mn
Bit rate mode : Constant
Bit rate : 384 Kbps
Channel(s) : 6 channels
Channel positions : Front: L C R, Side: L R, LFE
Sampling rate : 48.0 KHz
Bit depth : 16 bits
Compression mode : Lossy
Stream size : 219 MiB (16%)
Alignment : Split accross interleaves
Interleave, duration : 42 ms (1.00 video frame)
Interleave, preload duration : 500 ms

Скриншот c названием фильма

Скриншоты

Создавать темы 17-Июн-2013 22:31

[Профиль]  [ЛС] 

Asadovdiyor

Стаж: 5 лет 11 месяцев

Сообщений: 192

встреча с агрессивно настроенными ветеранами иракской войны превращает отдых в сущий кошмар о боже кому только могло прийти в голову снять фильм с такой идеей... :tm:

Создавать темы 17-Июн-2013 22:54

[Профиль]  [ЛС] 

Nijelmannn

Стаж: 5 лет 2 месяца

Сообщений: 151

Симпатии: 1

встреча с агрессивно настроенными ветеранами иракской войны превращает отдых в сущий кошмар о боже кому только могло прийти в голову снять фильм с такой идеей... :tm:
Вот уж точно

Создавать темы 17-Июн-2013 23:03

[Профиль]  [ЛС] 

Ahilless

Стаж: 5 лет 10 месяцев

Сообщений: 111

Симпатии: 6

встреча с агрессивно настроенными ветеранами иракской войны превращает отдых в сущий кошмар о боже кому только могло прийти в голову снять фильм с такой идеей... :tm:
Вот уж точно
Грёбаные америкосы...

Создавать темы 18-Июн-2013 14:37

[Профиль]  [ЛС] 

timtim

Стаж: 5 лет 10 месяцев

Сообщений: 13

почему звук трещит?! обьясните пожулайста!

Создавать темы 21-Июн-2013 15:21

[Профиль]  [ЛС] 

Lustian

Стаж: 6 лет 8 месяцев

Сообщений: 19

Хотя бы ветеранов вьетнамской войны поставили в сюжет, те более агрессивно настроенные

Создавать темы 23-Июн-2013 18:27

[Профиль]  [ЛС] 

artur78-h

Стаж: 5 лет 8 месяцев

Сообщений: 114

Фильм сойдет...
все беды от баб...дала бы разок...и фильм бы на этом кончился

Создавать темы 28-Июн-2013 22:39

[Профиль]  [ЛС] 
Показать сообщения:    
Ответить на тему

Текущее время: 16-Дек 17:59

Часовой пояс: UTC + 5



Вы не можете начинать темы
Вы не можете отвечать на сообщения
Вы не можете редактировать свои сообщения
Вы не можете удалять свои сообщения
Вы не можете голосовать в опросах
Вы не можете прикреплять файлы к сообщениям
Вы не можете скачивать файлы