Пол: Секретный материальчик / Paul (Грег Моттола) [2011 г., фантастика, комедия, приключения, BDRip 1080p [Hi10P]]

Ответить на тему
 

casperuz22 ®

Стаж: 7 лет 1 месяц

Сообщений: 13

Пол: Секретный материальчик / Paul
[Театральная версия / Theatrical Cut]
Год выпуска: 2011
Страна: США, Франция, Великобритания
Жанр: фантастика, комедия, приключения
Продолжительность: 01:43:40
Перевод: Профессиональный (полное дублирование)
Режиссер: Грег Моттола
В ролях: Саймон Пегг, Ник Фрост, Джереми Оуэн, Джефри Тэмбор, Дэвид Хаус, Дженнифер Грэйнджер, Нельсон Асценсио, Бобби Ли, Джейн Линч, Дэвид Кокнер и др.
Описание: Два английских гика отправляются на одно из самых значимых фанатских событий в области фантастики — конвент ComicCon в Америке. По пути, неподалёку от известной Зоны 51, они встречают сбежавшего инопланетянина по имени Пол, который просит помочь ему добраться домой. Пытаясь спастись от правительственных агентов, герои случайно похищают женщину и натыкаются на обкуренную свидетельницу аварийной посадки Пола на Землю.
Качество: BDRip 1080p Hi10P (SSIM: 0.9733190)
Формат: MKV
Видео кодек: x264 [email protected]
Аудио кодек: DTS
Видео: AVC at 5270 Кбит/сек, 1920 x 816 (2.353) at 23.976 fps
Аудио: DTS at 768 Кбит/сек, 6 каналов, 48,0 КГц
Субтитры 1: русские, форсированные, на места без перевода (SRT/UTF-8)
Субтитры 2: русские, полные (SRT/UTF-8)

Внимание!

Рип в High 10 Profile, в настоящее время не поддерживается большинством аппаратных проигрывателей.
Для корректного воспроизведения может потребоваться обновление ПО.
Владельцам несовместимого железа просьба не беспокоить, на трекере есть альтернативные релизы.
Если у вас возникают вопросы типа:
-почему у меня есть звук и отсутствует изображение?
-почему у меня рассыпается картинка?
-почему у меня картинка фонит синевой или зеленью?
-зачем и кому всё это нужно?
и тому подобные, гуглим

MediaInfo

Общее
Уникальный идентификатор : 222614481048289187532939552673291922639 (0xA779FD508F9A387586EC45BBA7056CCF)
Полное имя : Пол. Секретный материальчик [Paul] (2011) BDRip-Hi10P 1080p by_F.HD.mkv
Формат : Matroska
Версия формата : Version 2
Размер файла : 4,36 Гбайт
Продолжительность : 1 ч. 43 м.
Общий поток : 6021 Кбит/сек
Название фильма : релиз от FREEISLAND.ORG
Дата кодирования : UTC 2012-08-15 13:53:11
Программа кодирования : mkvmerge v5.7.0 ('The Whirlwind') built on Jul 8 2012 20:08:51
Библиотека кодирования : libebml v1.2.3 + libmatroska v1.3.0
Видео
Идентификатор : 1
Формат : AVC
Формат/Информация : Advanced Video Codec
Профиль формата : High [email protected]
Параметр CABAC формата : Да
Параметр ReFrames формата : 16 кадров
Идентификатор кодека : V_MPEG4/ISO/AVC
Продолжительность : 1 ч. 43 м.
Битрейт : 5270 Кбит/сек
Ширина : 1920 пикселей
Высота : 816 пикселей
Соотношение сторон : 2,35:1
Частота кадров : 23,976 кадра/сек
Цветовое пространство : YUV
Субдискретизация насыщенности : 4:2:0
Битовая глубина : 10 бит
Тип развёртки : Прогрессивная
Бит/(Пиксели*Кадры) : 0.140
Размер потока : 3,73 Гбайт (85%)
Библиотека кодирования : x264 core 125 r2208+677+32 26f090e tMod [[email protected] X86_64]
Настройки программы : cabac=1 / ref=16 / deblock=1:-2:-1 / analyse=0x3:0x133 / me=umh / subme=11 / psy=1 / fade_compensate=0.00 / psy_rd=1.00:0.10 / mixed_ref=1 / me_range=64 / chroma_me=1 / trellis=2 / 8x8dct=1 / cqm=0 / deadzone=21,11 / fast_pskip=0 / chroma_qp_offset=-3 / threads=12 / lookahead_threads=2 / sliced_threads=0 / nr=0 / decimate=1 / interlaced=0 / bluray_compat=0 / constrained_intra=0 / fgo=0 / bframes=11 / b_pyramid=2 / b_adapt=2 / b_bias=0 / direct=3 / weightb=1 / open_gop=0 / weightp=2 / keyint=240 / keyint_min=24 / scenecut=40 / intra_refresh=0 / rc_lookahead=0 / rc=2pass / mbtree=0 / bitrate=5270 / ratetol=1.0 / qcomp=1.00 / qpmin=0 / qpmax=48 / qpstep=4 / cplxblur=20.0 / qblur=0.5 / vbv_maxrate=240000 / vbv_bufsize=240000 / nal_hrd=none / ip_ratio=1.40 / pb_ratio=1.30 / aq=4:0.80
Default : Да
Forced : Нет
Основные цвета : BT.709-5, BT.1361, IEC 61966-2-4, SMPTE RP177
Характеристики трансфера : BT.709-5, BT.1361
Коэффициенты матрицы : BT.709-5, BT.1361, IEC 61966-2-4 709, SMPTE RP177
Аудио
Идентификатор : 2
Формат : DTS
Формат/Информация : Digital Theater Systems
Идентификатор кодека : A_DTS
Продолжительность : 1 ч. 43 м.
Вид битрейта : Постоянный
Битрейт : 755 Кбит/сек
Каналы : 6 каналов
Расположение каналов : Front: L C R, Side: L R, LFE
Частота : 48,0 КГц
Битовая глубина : 24 бит
Метод сжатия : С потерями
Размер потока : 559 Мбайт (13%)
Заголовок : DUB
Язык : Russian
Default : Да
Forced : Нет
Текст #1
Идентификатор : 3
Формат : UTF-8
Идентификатор кодека : S_TEXT/UTF8
Идентификатор кодека/Информация : UTF-8 Plain Text
Заголовок : forced | на места без перевода
Язык : Russian
Default : Да
Forced : Да
Текст #2
Идентификатор : 4
Формат : UTF-8
Идентификатор кодека : S_TEXT/UTF8
Идентификатор кодека/Информация : UTF-8 Plain Text
Заголовок : FULL
Язык : Russian
Default : Нет
Forced : Нет
Меню
00:00:00.000 : :01
00:05:25.325 : :02
00:11:20.763 : :03
00:16:52.636 : :04
00:23:53.890 : :05
00:28:58.445 : :06
00:31:24.591 : :07
00:36:50.333 : :08
00:40:54.618 : :09
00:43:57.426 : :10
00:51:13.320 : :11
00:56:30.386 : :12
01:00:42.347 : :13
01:07:01.142 : :14
01:11:41.755 : :15
01:18:28.412 : :16
01:21:06.486 : :17
01:26:53.124 : :18
01:30:45.940 : :19

Скриншоты








Последний раз редактировалось: casperuz22 (2013-06-19 09:02), всего редактировалось 6 раз(а)

Создавать темы 18-Июн-2013 07:07

[Профиль]  [ЛС] 

Grock

Стаж: 6 лет 8 месяцев

Сообщений: 637

Симпатии: 113

Для начала оформите полностью основные данные, такие как видео и аудио данные,
"продолжительность в формате
чч:мм:сс. Далее, скриншоты создайте с оригинального файла, минимум должно быть три скриншота. Неплохо было бы также прочитать внимательно здесь - http://tas-ix.net/viewtopic.php?t=5534 и здесь - http://tas-ix.net/viewtopic.php?p=166

Создавать темы 18-Июн-2013 09:05

[Профиль]  [ЛС] 

ziyod

Стаж: 7 лет 7 месяцев

Сообщений: 367

Симпатии: 60

Полностью переоформил за вас, т.к. раздача такого формата редкая и стоющая... Осталось только встать на раздачу и сделать скриншоты оригинальном размером т.е. по 1920 x 816 у вас получилось по 960px × 408px.

Создавать темы 18-Июн-2013 19:01

[Профиль]  [ЛС] 

Топик был перенесен из форума Фильмы за 2011 в форум HD-AVC

ziyod

Создавать темы 18-Июн-2013 19:02

 

dilshod5254

Стаж: 6 лет 6 месяцев

Сообщений: 106

Симпатии: 14

филм просто убивашка
полагаю
Полностью переоформил за вас, т.к. раздача такого формата редкая и стоющая... Осталось только встать на раздачу и сделать скриншоты оригинальном размером т.е. по 1920 x 816 у вас получилось по 960px × 408px.
спасибка за оформления!

Создавать темы 18-Июн-2013 21:41

[Профиль]  [ЛС] 

Nividimka

Стаж: 5 лет 6 месяцев

Сообщений: 38

филм просто убивашка
Да,крутая комедия ag

Создавать темы 18-Июн-2013 22:46

[Профиль]  [ЛС] 

casperuz22 ®

Стаж: 7 лет 1 месяц

Сообщений: 13

Полностью переоформил за вас, т.к. раздача такого формата редкая и стоющая... Осталось только встать на раздачу и сделать скриншоты оригинальном размером т.е. по 1920 x 816 у вас получилось по 960px × 408px.
спасибо за оформление, я так не смог бы. я первый раз видео выкладиваю. Спасибо еще раз.

Создавать темы 19-Июн-2013 08:46

[Профиль]  [ЛС] 

casperuz22 ®

Стаж: 7 лет 1 месяц

Сообщений: 13

Полностью переоформил за вас, т.к. раздача такого формата редкая и стоющая... Осталось только встать на раздачу и сделать скриншоты оригинальном размером т.е. по 1920 x 816 у вас получилось по 960px × 408px.
Исправил и я на раздачи.

Создавать темы 19-Июн-2013 09:04

[Профиль]  [ЛС] 
Показать сообщения:    
Ответить на тему

Текущее время: 21-Окт 00:36

Часовой пояс: UTC + 5



Вы не можете начинать темы
Вы не можете отвечать на сообщения
Вы не можете редактировать свои сообщения
Вы не можете удалять свои сообщения
Вы не можете голосовать в опросах
Вы не можете прикреплять файлы к сообщениям
Вы не можете скачивать файлы