Джек – покоритель великанов / Jack the Giant Slayer (Брайан Сингер / Bryan Singer) [2013 г., Фэнтези, Приключения, BDRip][Чистый Звук]

Ответить на тему
 

Vika89 ®

Стаж: 6 лет 4 месяца

Сообщений: 90

Симпатии: 3

Джек – покоритель великанов / Jack the Giant Slayer
Год выпуска: 2013
Страна: США
Жанр: Фэнтези, Приключения
Продолжительность: 01:54:21
Перевод: Профессиональный (полное дублирование) [Чистый Звук]
Режиссер: Брайан Сингер / Bryan Singer
В ролях: Николас Холт, Элинор Томлинсон, Юэн МакГрегор, Стэнли Туччи, Иэн МакШейн, Билл Найи, Джон Кассир, Бен Дэниелс, Юэн Бремнер, Эдди Марсан
Описание: История начинается с похищения принцессы, что грозит нарушить хрупкий мир между людьми и великанами. Юный фермер возглавляет вылазку в царство гигантов в надежде спасти девушку
Качество: BDRip
Формат: MKV
Видео кодек: H.264
Аудио кодек: AC3 / DTS
Видео: 9400 Kbps; 1920 x 800; 23.976 fps
Аудио: AC3, 448 кбит/с, 5.1 ch, 48 kHz - Russian
Аудио 2: DTS, 1536 кбит/с, 5.1, 48 kHz - English
Субтитры: Английский, Испанский (Вшитые отключаемые)

Media Info

Общее
Уникальный идентификатор : 177368739251621318953860897754886751062 (0x856FFA03435A5DB69CDC0054D6F8C356)
Полное имя : D:\1080p_HD\Jack.The.Giant.Slayer.2013.BDRip.1080p.mkv
Формат : Matroska
Версия формата : Version 2
Размер файла : 9,07 Гбайт
Продолжительность : 1 ч. 54 м.
Общий поток : 11,4 Мбит/сек
Название фильма : Release from VarMkn |CHD|
Дата кодирования : UTC 2013-06-02 14:37:21
Программа кодирования : mkvmerge v5.4.0 ('Piper') built on Mar 10 2012 13:34:39
Библиотека кодирования : libebml v1.2.3 + libmatroska v1.3.0
Видео
Идентификатор : 1
Формат : AVC
Формат/Информация : Advanced Video Codec
Профиль формата : [email protected]
Параметр CABAC формата : Да
Параметр ReFrames формата : 5 кадров
Идентификатор кодека : V_MPEG4/ISO/AVC
Продолжительность : 1 ч. 54 м.
Битрейт : 9400 Кбит/сек
Ширина : 1920 пикселей
Высота : 800 пикселей
Соотношение сторон : 2,40:1
Частота кадров : 23,976 кадра/сек
Цветовое пространство : YUV
Субдискретизация насыщенности : 4:2:0
Битовая глубина : 8 бит
Тип развёртки : Прогрессивная
Бит/(Пиксели*Кадры) : 0.255
Размер потока : 7,33 Гбайт (81%)
Заголовок : Jack.The.Giant.Slayer.2013
Библиотека кодирования : x264 core 125 r2208 d9d2288
Настройки программы : cabac=1 / ref=5 / deblock=1:-3:-3 / analyse=0x3:0x113 / me=umh / subme=10 / psy=1 / psy_rd=1.00:0.05 / mixed_ref=1 / me_range=32 / chroma_me=1 / trellis=2 / 8x8dct=1 / cqm=0 / deadzone=21,11 / fast_pskip=0 / chroma_qp_offset=-2 / threads=8 / lookahead_threads=1 / sliced_threads=0 / nr=0 / decimate=1 / interlaced=0 / bluray_compat=0 / constrained_intra=0 / bframes=4 / b_pyramid=2 / b_adapt=2 / b_bias=0 / direct=3 / weightb=1 / open_gop=0 / weightp=2 / keyint=250 / keyint_min=23 / scenecut=40 / intra_refresh=0 / rc=2pass / mbtree=0 / bitrate=9400 / ratetol=1.0 / qcomp=0.70 / qpmin=0 / qpmax=69 / qpstep=4 / cplxblur=20.0 / qblur=0.5 / ip_ratio=1.40 / pb_ratio=1.30 / aq=2:1.00
Default : Нет
Forced : Нет
Аудио #1
Идентификатор : 2
Формат : AC-3
Формат/Информация : Audio Coding 3
Расширение режима : CM (complete main)
Идентификатор кодека : A_AC3
Продолжительность : 1 ч. 54 м.
Вид битрейта : Постоянный
Битрейт : 448 Кбит/сек
Каналы : 6 каналов
Расположение каналов : Front: L C R, Side: L R, LFE
Частота : 48,0 КГц
Битовая глубина : 16 бит
Метод сжатия : С потерями
Размер потока : 366 Мбайт (4%)
Заголовок : Rus DD 5.1 448 - Line
Язык : Russian
Default : Нет
Forced : Нет
Аудио #2
Идентификатор : 3
Формат : DTS
Формат/Информация : Digital Theater Systems
Идентификатор кодека : A_DTS
Продолжительность : 1 ч. 54 м.
Вид битрейта : Постоянный
Битрейт : 1510 Кбит/сек
Каналы : 6 каналов
Расположение каналов : Front: L C R, Side: L R, LFE
Частота : 48,0 КГц
Битовая глубина : 24 бит
Метод сжатия : С потерями
Размер потока : 1,21 Гбайт (13%)
Заголовок : DTS 1536 5.1
Язык : English
Default : Нет
Forced : Нет
Текст #1
Идентификатор : 4
Формат : UTF-8
Идентификатор кодека : S_TEXT/UTF8
Идентификатор кодека/Информация : UTF-8 Plain Text
Заголовок : English Subtitlies
Язык : English
Default : Нет
Forced : Нет
Текст #2
Идентификатор : 5
Формат : UTF-8
Идентификатор кодека : S_TEXT/UTF8
Идентификатор кодека/Информация : UTF-8 Plain Text
Заголовок : Spanish Subtitlies
Язык : Spanish
Default : Нет
Forced : Нет

Рецензия, отзыв о фильме:

Громыхающее фэнтези по мотивам детских сказок
Крестьянский парень Джек (Холт) в надежде спасти разочарованную принцессу Изабеллу (Томлинсон) из рук злобных великанов поднимается в небо по волшебному бобовому стеблю. Джека сопровождают люди короля, один из которых лелеет предательские планы спустить великанов с небес на землю — в буквальном смысле этого слова.
Давным-давно где-то в Голливуде было решено, что древнегреческие мифы, сказки братьев Гримм и все в таком духе — идеальный материал для фильмов с большими бюджетами, героическими тинэйджерами и прочей 3D-кутерьмой: еще бы, знают их все, а срок действия авторских прав истек в незапамятные времена. Вот и Брайан Сингер со своей компанией Bad Hat Harry Productions решил не отставать от других, смешав в один буйный приключенческий коктейль короля Артура, викингов и всем известные сказки «Джек — победитель великанов» и «Джек и бобовый стебель».
Как и большинству подобных историй, картине отчаянно не хватает правдоподобной завязки. Изабелла и Джек встречаются на рынке, где герой меняет свою лошадь на «волшебные» бобы, которые ни в коем случае нельзя поливать (ну чистые «Гремлины»!). Увы, внезапная гроза заставляет принцессу искать убежища в оказавшейся поблизости хижине Джека, а заодно пробуждает «бобовую магию».
Релиз картины был перенесен на девять месяцев для дополнительной работы над спецэффектами.
В следующем году мы увидим Николаса Холта сразу в двух больших проектах: новых «Людях Икс» и перезапуске «Безумного Макса».
Билл Найи сыграл главного великана при помощи технологии motion capture.
Но бог с ним — с сюжетом, сами великаны оказываются очень смешными, а по характеру сильно напоминают гномов из «Хоббита», только здоровенных и злющих. Пускай с живыми актерами эти компьютерные исполины сочетаются далеко не лучшим образом, посмеяться тут можно вволю. Тем более что в умении передать дух приключений «Джек…» на голову превосходит все последние экранизации волшебных сказок. В этом отношении он гораздо ближе к «Шреку», чем к натужным клонам «Сумерек». Ну а когда великаны начинают расшвыривать рыцарей в полной экипировке словно котят и используют в качестве метательного оружия мельничные крылья, Сингера и его команду сценаристов, среди которых и его давний соавтор Кристофер МакКуорри ("Джек Ричер»), хочется искренне поблагодарить за размах, вполне соответствующий росту вынесенных в заглавие злодеев.

Скриншоты





Последний раз редактировалось: Vika89 (2013-06-19 13:30), всего редактировалось 1 раз

Создавать темы 19-Июн-2013 11:44

[Профиль]  [ЛС] 

Taa6969

Стаж: 6 лет 4 месяца

Сообщений: 123

Симпатии: 2

9 гб ?

Создавать темы 19-Июн-2013 13:40

[Профиль]  [ЛС] 

alx777

Стаж: 5 лет 10 месяцев

Сообщений: 87

Симпатии: 8

Перевод: Профессиональный (полное дублирование) [Чистый Звук]?Вчера лицензия вышла..

Создавать темы 19-Июн-2013 13:53

[Профиль]  [ЛС] 

Иви

Стаж: 5 лет 11 месяцев

Сообщений: 688

Симпатии: 65

Перевод: Профессиональный (полное дублирование) [Чистый Звук]?Вчера лицензия вышла..
что не так?

Создавать темы 19-Июн-2013 17:34

[Профиль]  [ЛС] 

Robot-IX

Стаж: 5 лет 8 месяцев

Сообщений: 223

Симпатии: 9

ничё... то что чистый звук ! - дело поправимое!!!)) ГЛАВНОЕ качество видео!

Создавать темы 20-Июн-2013 01:40

[Профиль]  [ЛС] 

yura_greek

Стаж: 5 лет 10 месяцев

Сообщений: 59

Симпатии: 6

ничё... то что чистый звук ! - дело поправимое!!!)) ГЛАВНОЕ качество видео!
Согласен!!! Автору Спасибо!!!

Создавать темы 20-Июн-2013 01:55

[Профиль]  [ЛС] 
Показать сообщения:    
Ответить на тему

Текущее время: 12-Дек 22:53

Часовой пояс: UTC + 5



Вы не можете начинать темы
Вы не можете отвечать на сообщения
Вы не можете редактировать свои сообщения
Вы не можете удалять свои сообщения
Вы не можете голосовать в опросах
Вы не можете прикреплять файлы к сообщениям
Вы не можете скачивать файлы