Джек – покоритель великанов / Jack the Giant Slayer (Брайан Сингер / Bryan Singer) [2013, США, Фэнтези, приключения, BDRip] Dub[Лицензия]

Страницы :  1, 2  След.

Ответить на тему
 

mp1988 ®

Стаж: 6 лет 10 месяцев

Сообщений: 607

Симпатии: 971

Джек – покоритель великанов
Jack the Giant Slayer
«If you think you know the story, you don't know Jack.»-- Год выпуска: 2013
Страна: США / New Line Cinema, Legendary Pictures, Original Film
Жанр: фэнтези, приключения
Продолжительность: 01:54:20
Перевод: Профессиональный (полное дублирование) [Лицензия]-Режиссер: Брайан Сингер / Bryan Singer-В ролях: Николас Холт, Элинор Томлинсон, Юэн МакГрегор, Стэнли Туччи, Иэн МакШейн, Билл Найи, Джон Кассир, Бен Дэниелс, Юэн Бремнер, Эдди Марсан, Кристофер Фэйрбэнк, Саймон Лоу-
История начинается с похищения принцессы, что грозит нарушить хрупкий мир между людьми и великанами. Юный фермер возглавляет вылазку в царство гигантов в надежде спасти девушку.-Доп. информация:
http://mover.uz/watch/nvXE5ukj/ - Трейлер-- -Качество:BDRip [Jack.The.Giant.Slayer.2013.1080p.BluRay.AVC.DTS-HD.MA.5.1-LAZERS]
Формат: AVI
Автор рипа: Dalemake
Видео кодек: XviD
Аудио кодек: AC3
Видео: 720x304 (2.37:1), 23.976 fps, XviD build 73 ~1376 kbps avg, 0.26 bit/pixel
Аудио: 48 kHz, AC3, 448 kb/s 6 ch

Скриншоты




интересные факты


• Персонаж Юэна МакГрегора говорит, что у него плохое предчувствие. Эту же фразу дважды произносит его персонаж из «Звездных войн» Оби-Ван Кеноби. Уорвик Дэвис и Ральф Браун также снимались вместе с ним в «Звездные войны: Эпизод 1 — Скрытая угроза» (1999).
• В фильме есть некоторые намёки на библейскую историю Давида. Давид, как и Джек, убил великана, а затем женился на дочери короля, чтобы самому стать королем. Давид убил Голиафа, используя рогатку. А в фильме один из великанов стреляет по городу камнями из рогатки.
• Во время боя с Родериком Элмонт три раза роняет кинжал Джека, но при этом поднимает его только один раз. В первый раз — когда он падает на гигантскую статую (он не поднимает его), второй — когда клинок выбивают из его рук (позже он подбирает его ртом), в третий раз — когда лезвие пронзает Родерика. Не показывают, как между первым и вторым разом кинжал попадает в руки Элмонта.

MediaInfo

General
Complete name : D:\Jack_Pokoritel’_velikanov_2013_BDRip_by_Dalemake.avi
Format : AVI
Format/Info : Audio Video Interleave
File size : 1.46 GiB
Duration : 1h 54mn
Overall bit rate : 1 834 Kbps
Writing application : VirtualDubMod 1.5.10.3 | www.virtualdub-fr.org || (build 2550/release)
Writing library : VirtualDubMod build 2550/release
Video
ID : 0
Format : MPEG-4 Visual
Format profile : Advanced [email protected]
Format settings, BVOP : 1
Format settings, QPel : No
Format settings, GMC : No warppoints
Format settings, Matrix : Custom
Codec ID : XVID
Codec ID/Hint : XviD
Duration : 1h 54mn
Bit rate : 1 377 Kbps
Width : 720 pixels
Height : 304 pixels
Display aspect ratio : 2.35:1
Frame rate : 23.976 fps
Color space : YUV
Chroma subsampling : 4:2:0
Bit depth : 8 bits
Scan type : Progressive
Compression mode : Lossy
Bits/(Pixel*Frame) : 0.262
Stream size : 1.10 GiB (75%)
Writing library : XviD 73
Audio
ID : 1
Format : AC-3
Format/Info : Audio Coding 3
Mode extension : CM (complete main)
Format settings, Endianness : Big
Codec ID : 2000
Duration : 1h 54mn
Bit rate mode : Constant
Bit rate : 448 Kbps
Channel(s) : 6 channels
Channel positions : Front: L C R, Side: L R, LFE
Sampling rate : 48.0 KHz
Bit depth : 16 bits
Compression mode : Lossy
Stream size : 366 MiB (24%)
Alignment : Split accross interleaves
Interleave, duration : 42 ms (1.00 video frame)
Interleave, preload duration : 500 ms


Последний раз редактировалось: mp1988 (2013-07-05 21:06), всего редактировалось 1 раз

Создавать темы 19-Июн-2013 13:35

[Профиль]  [ЛС] 

Scarpion0990

Стаж: 4 года 11 месяцев

Сообщений: 66

Симпатии: 11

«If you think you know the story, you don't know Jack.»
Yeah we think doesnt matter I know Jack or not the only fact that I know my aim да фильм нада смотреть но не слоган

Создавать темы 19-Июн-2013 15:49

[Профиль]  [ЛС] 

milano

Стаж: 5 лет 9 месяцев

Сообщений: 42

один раз можно посмотреть

Создавать темы 27-Июн-2013 22:42

[Профиль]  [ЛС] 

4LIFEIP

Стаж: 4 года 8 месяцев

Сообщений: 127

Симпатии: 1

ы...ожидал большего от фильма)..нормально,оценка 4 без плюса из 5 ти)

Создавать темы 29-Июн-2013 18:44

[Профиль]  [ЛС] 

Rasul

Стаж: 5 лет 10 месяцев

Сообщений: 100

Симпатии: 6

4LIFEIP, согласен с тобой

Создавать темы 30-Июн-2013 17:17

[Профиль]  [ЛС] 

vita92

Стаж: 6 лет 8 месяцев

Сообщений: 27

Симпатии: 2

газу дайте

Создавать темы 02-Июл-2013 16:04

[Профиль]  [ЛС] 

Aragorn

Стаж: 4 года 10 месяцев

Сообщений: 11

Почему у меня не качает (((

Создавать темы 02-Июл-2013 18:28

[Профиль]  [ЛС] 

ALTAIR&ASSASSINS

Стаж: 5 лет 11 месяцев

Сообщений: 12

ставте на раздачу!!!!!!!!!

Создавать темы 04-Июл-2013 10:02

[Профиль]  [ЛС] 

bob

Стаж: 5 лет 11 месяцев

Сообщений: 42

фильм классный смотрел на dvd

Создавать темы 07-Июл-2013 11:51

[Профиль]  [ЛС] 

centuriy

Стаж: 6 лет 4 месяца

Сообщений: 25

Симпатии: 1

По ошибке люди начали качать фильм подделку "Джек – убийца великанов / Jack the Giant Killer". В итоге у оргинала: "Джек – покоритель великанов / Jack the Giant Slayer" 780 скачиваний и 1 страница комментов а у подделки: "Джек – убийца великанов / Jack the Giant Killer" 2439 скачиваний, 7 страниц комментов и золотая раздача!
ps. Пишу это сообщение чтобы поднять положение этой раздачи чуть выше.

Создавать темы 17-Авг-2013 07:24

[Профиль]  [ЛС] 

K.O

Стаж: 5 лет 3 месяца

Сообщений: 143

Симпатии: 10

не знаю кому не понравился фильм, но он мне понравился по полному 5 из 5ти, особенно радует концовка, и сама история отличная, спасибо раздавшим и автору

Создавать темы 30-Авг-2013 08:42

[Профиль]  [ЛС] 

D VS O

Стаж: 5 лет 11 месяцев

Сообщений: 19

Симпатии: 3

Это не БДрип

Создавать темы 30-Авг-2013 09:06

[Профиль]  [ЛС] 

davrs

Стаж: 5 лет 3 месяца

Сообщений: 3

классный фильм

Создавать темы 05-Сен-2013 23:47

[Профиль]  [ЛС] 

avatar5225

Стаж: 5 лет 5 месяцев

Сообщений: 11

народ помогите скачать

Создавать темы 12-Дек-2013 23:47

[Профиль]  [ЛС] 

mdima

Стаж: 8 лет 10 месяцев

Сообщений: 29

скорости больше дайте пожалуйСТа

Создавать темы 26-Дек-2013 17:52

[Профиль]  [ЛС] 
Показать сообщения:    
Ответить на тему

Текущее время: 14-Дек 12:51

Часовой пояс: UTC + 5



Вы не можете начинать темы
Вы не можете отвечать на сообщения
Вы не можете редактировать свои сообщения
Вы не можете удалять свои сообщения
Вы не можете голосовать в опросах
Вы не можете прикреплять файлы к сообщениям
Вы не можете скачивать файлы