(Progressive House) Audien & Michael S. - Leaving You - 2013, (Zouk Recordings [ZOUK197]) WEB, MPEG Layer-3 (tracks+image), 320 kbps, 44.1KHz, Joint Stereo

Ответить на тему
 

ziyod19-91 ®

Стаж: 5 лет 10 месяцев

Сообщений: 27

Симпатии: 1

Audien Feat. Michael S. - Leaving You-Лейбл звукозаписи: Zouk Recordings (Armada Music)
Номер по каталогу: ZOUK197
Дата релиза: 4th February 2013
Жанр: Progressive House
Продолжительность: 00:15:11
Аудио кодек: MPEG Layer-3 (+image)
Тип рипа: Tracks
Битрейт аудио: 320kbps, 44.1KHz, Joint Stereo
Источник: -Треклист:
01. Audien ft. Michael S. - Leaving You feat. Michael S. (Original Mix) - 05:48
02. Audien ft. Michael S. - Leaving You feat. Michael S. (Dub Mix) - 05:48
03. Audien ft. Michael S. - Leaving You feat. Michael S. (Radio Edit) - 03:34-

MediaInfo

01. Audien ft. Michael S. - Leaving You feat. Michael S. (Original Mix)

General
Complete name                            : 01 Leaving You feat. Michael S. (Original Mix).mp3
Format                                   : MPEG Audio
File size                                : 13.3 MiB
Duration                                 : 5mn 48s
Overall bit rate mode                    : Constant
Overall bit rate                         : 320 Kbps
Album                                    : Leaving You
Album/Performer                          : Audien ft. Michael S.
Part/Position                            : 1
Part/Total                               : 1
Track name                               : Leaving You feat. Michael S. (Original Mix)
Track name/Position                      : 1
Track name/Total                         : 3
Performer                                : Audien ft. Michael S.
Genre                                    : House
Recorded date                            : 2013
Writing library                          : LAME3.99r
iTunes_CDDB_1                            : 22038F03+68528+3+150+26306+52462
iTunes_CDDB_TrackNumber                  : 1
Audio
Format                                   : MPEG Audio
Format version                           : Version 1
Format profile                           : Layer 3
Mode                                     : Joint stereo
Mode extension                           : MS Stereo
Duration                                 : 5mn 49s
Bit rate mode                            : Constant
Bit rate                                 : 320 Kbps
Channel(s)                               : 2 channels
Sampling rate                            : 44.1 KHz
Compression mode                         : Lossy
Stream size                              : 13.3 MiB (100%)
Writing library                          : LAME3.99r
Encoding settings                        : -m j -V 4 -q 2 -lowpass 20.5

02. Audien ft. Michael S. - Leaving You feat. Michael S. (Dub Mix)

General
Complete name                            : 02 Leaving You feat. Michael S. (Dub Mix).mp3
Format                                   : MPEG Audio
File size                                : 13.3 MiB
Duration                                 : 5mn 48s
Overall bit rate mode                    : Constant
Overall bit rate                         : 320 Kbps
Album                                    : Leaving You
Album/Performer                          : Audien ft. Michael S.
Part/Position                            : 1
Part/Total                               : 1
Track name                               : Leaving You feat. Michael S. (Dub Mix)
Track name/Position                      : 2
Track name/Total                         : 3
Performer                                : Audien ft. Michael S.
Genre                                    : House
Recorded date                            : 2013
Writing library                          : LAME3.99r
iTunes_CDDB_1                            : 22038F03+68528+3+150+26306+52462
iTunes_CDDB_TrackNumber                  : 2
Audio
Format                                   : MPEG Audio
Format version                           : Version 1
Format profile                           : Layer 3
Mode                                     : Joint stereo
Mode extension                           : MS Stereo
Duration                                 : 5mn 49s
Bit rate mode                            : Constant
Bit rate                                 : 320 Kbps
Channel(s)                               : 2 channels
Sampling rate                            : 44.1 KHz
Compression mode                         : Lossy
Stream size                              : 13.3 MiB (100%)
Writing library                          : LAME3.99r
Encoding settings                        : -m j -V 4 -q 2 -lowpass 20.5

03. Audien ft. Michael S. - Leaving You feat. Michael S. (Radio Edit)

General
Complete name                            : 03 Leaving You feat. Michael S. (Radio Edit).mp3
Format                                   : MPEG Audio
File size                                : 8.17 MiB
Duration                                 : 3mn 34s
Overall bit rate mode                    : Constant
Overall bit rate                         : 320 Kbps
Album                                    : Leaving You
Album/Performer                          : Audien ft. Michael S.
Part/Position                            : 1
Part/Total                               : 1
Track name                               : Leaving You feat. Michael S. (Radio Edit)
Track name/Position                      : 3
Track name/Total                         : 3
Performer                                : Audien ft. Michael S.
Genre                                    : House
Recorded date                            : 2013
Writing library                          : LAME3.99r
iTunes_CDDB_1                            : 22038F03+68528+3+150+26306+52462
iTunes_CDDB_TrackNumber                  : 3
Audio
Format                                   : MPEG Audio
Format version                           : Version 1
Format profile                           : Layer 3
Mode                                     : Joint stereo
Duration                                 : 3mn 34s
Bit rate mode                            : Constant
Bit rate                                 : 320 Kbps
Channel(s)                               : 2 channels
Sampling rate                            : 44.1 KHz
Compression mode                         : Lossy
Stream size                              : 8.17 MiB (100%)
Writing library                          : LAME3.99r
Encoding settings                        : -m j -V 4 -q 2 -lowpass 20.5

Создавать темы 20-Июн-2013 02:00

[Профиль]  [ЛС] 

MiamiBoy

Стаж: 6 лет 6 месяцев

Сообщений: 136

Симпатии: 7

не туда залил

Создавать темы 20-Июн-2013 15:50

[Профиль]  [ЛС] 

ziyod19-91 ®

Стаж: 5 лет 10 месяцев

Сообщений: 27

Симпатии: 1


Audien - Keep This Memory (Remixes)


Последний раз редактировалось: ziyod19-91 (2013-07-20 23:43), всего редактировалось 1 раз

Создавать темы 20-Июн-2013 16:32

[Профиль]  [ЛС] 

Топик был перенесен из форума Lossless в форум House, Techno, Electro, Hardcore

ziyod19-91

Создавать темы 20-Июн-2013 16:35

 

MiamiBoy

Стаж: 6 лет 6 месяцев

Сообщений: 136

Симпатии: 7

не обижайся

Создавать темы 20-Июн-2013 16:50

[Профиль]  [ЛС] 

ziyod19-91 ®

Стаж: 5 лет 10 месяцев

Сообщений: 27

Симпатии: 1

не обижайся
Как можно??!! Нет никаких обид))) Наоборот, ОГРОМНОЕ
Но то, что перепутал раздел, всё равно стыдно ah ))))

Создавать темы 20-Июн-2013 17:01

[Профиль]  [ЛС] 
Показать сообщения:    
Ответить на тему

Текущее время: 19-Ноя 11:46

Часовой пояс: UTC + 5



Вы не можете начинать темы
Вы не можете отвечать на сообщения
Вы не можете редактировать свои сообщения
Вы не можете удалять свои сообщения
Вы не можете голосовать в опросах
Вы не можете прикреплять файлы к сообщениям
Вы не можете скачивать файлы