Наруто 2 сезон 318 / Naruto Shippuuden 318 (Датэ хаятэ) [2013 г., Приключения, комедия, боевые искусства, сёнэн, HDTVRip-AVC]

Ответить на тему
 

dreamcetcher ®

Стаж: 5 лет 8 месяцев

Сообщений: 53

Симпатии: 1

Наруто 2 сезон 318 / Naruto Shippuuden 318
Год выпуска: 2013
Страна: Япония
Жанр: Приключения, комедия, боевые искусства, сёнэн
Продолжительность: 23:09
Перевод: Любительский (одноголосый)
Режиссер: Датэ хаятэ
В ролях: Накамура Тиэ / 中村千絵 — Сакура Харуно
Такэучи Дзюнко / 竹内順子 — Наруто Узумаки
Сугияма Нориаки / 杉山紀彰 — Саске Учиха
Исида Акира / 石田彰 — Гаара
Иноуэ Кадзухико / 井上和彦 — Какаши Хатаке
Кудзира / くじら — Орочимару
Канна Нобутоси / 神奈延年 — Кабуто Якуси
Кацуки Масако / 勝生真沙子 — Цунадэ
Масукава Ёити / 増川洋一 — Рок Ли
Мидзуки Нана / 水樹奈々 — Хината Хьюга
Морикубо Сётаро / 森久保祥太郎 — Шикамару Нара
Оцука Хотю / 大塚芳忠 — Джирайя
Сибата Хидэкацу / 柴田秀勝 — Третий Хокаге
Исикава Хидэо / 石川英郎 — Итачи Учиха
Тотика Койти / 遠近孝一 — Нейджи Хьюга
Описание: "Дыра в сердце - другой Джинчурики"
Кабуто решает на время оставить всех в, и провести какой-то опыт что бы разработан еще Орочимару. Он воскресил бывшего джинчурики Восьмихвостого, он и Килер Би когда-то были знакомы, что предпримет Би против такого сильного соперника?
Качество: HDTVRip-AVC
Формат: MKV
Видео кодек: Другой MPEG4
Аудио кодек: MPEG Audio
Видео: AVC,848x480,768Kbs,23.976fps
Аудио: MPEG Audio,320Kbps,44.1KHz,2ch

MediaInfo

General
Unique ID : 209597104390011046941445019971514264220 (0x9DAEEF18034E394AB816CFC60E63EA9C)
Complete name : F:\Temp\Naruto Shippuuden 318 [Sintop] - naruto-grand.ru.mkv
Format : Matroska
Format version : Version 4 / Version 2
File size : 180 MiB
Duration : 23mn 9s
Overall bit rate : 1 089 Kbps
Encoded date : UTC 2013-06-20 12:30:30
Writing application : mkvmerge v6.0.0 ('Coming Up For Air') built on Jan 20 2013 09:52:00
Writing library : libebml v1.3.0 + libmatroska v1.4.0
Attachment : Yes
Video
ID : 2
Format : AVC
Format/Info : Advanced Video Codec
Format profile : [email protected]
Format settings, CABAC : Yes
Format settings, ReFrames : 6 frames
Codec ID : V_MPEG4/ISO/AVC
Duration : 23mn 9s
Bit rate : 768 Kbps
Width : 848 pixels
Height : 480 pixels
Display aspect ratio : 16:9
Frame rate mode : Constant
Frame rate : 23.976 fps
Color space : YUV
Chroma subsampling : 4:2:0
Bit depth : 8 bits
Scan type : Progressive
Bits/(Pixel*Frame) : 0.079
Stream size : 124 MiB (69%)
Writing library : x264 core 120 r2120 0c7dab9
Encoding settings : cabac=1 / ref=6 / deblock=1:1:1 / analyse=0x1:0x111 / me=umh / subme=8 / psy=1 / psy_rd=0.40:0.00 / mixed_ref=1 / me_range=16 / chroma_me=1 / trellis=1 / 8x8dct=0 / cqm=0 / deadzone=21,11 / fast_pskip=1 / chroma_qp_offset=-2 / threads=4 / sliced_threads=0 / nr=0 / decimate=1 / interlaced=0 / bluray_compat=0 / constrained_intra=0 / bframes=3 / b_pyramid=2 / b_adapt=2 / b_bias=0 / direct=3 / weightb=1 / open_gop=0 / weightp=2 / keyint=250 / keyint_min=23 / scenecut=40 / intra_refresh=0 / rc_lookahead=50 / rc=2pass / mbtree=1 / bitrate=768 / ratetol=1.0 / qcomp=0.60 / qpmin=0 / qpmax=69 / qpstep=4 / cplxblur=20.0 / qblur=0.5 / vbv_maxrate=1536 / vbv_bufsize=3840 / nal_hrd=none / ip_ratio=1.40 / aq=1:0.60
Default : Yes
Forced : Yes
Audio
ID : 1
Format : MPEG Audio
Format version : Version 1
Format profile : Layer 3
Codec ID : A_MPEG/L3
Codec ID/Hint : MP3
Duration : 23mn 9s
Bit rate mode : Constant
Bit rate : 320 Kbps
Channel(s) : 2 channels
Sampling rate : 44.1 KHz
Compression mode : Lossy
Stream size : 53.0 MiB (29%)
Default : Yes
Forced : No

Скриншоты





Создавать темы 20-Июн-2013 18:52

[Профиль]  [ЛС] 

bullet

Стаж: 4 года 5 месяцев

Сообщений: 382

Симпатии: 37

Какая Озвучка (кто озвучил)??

Создавать темы 20-Июн-2013 21:40

[Профиль]  [ЛС] 

swatik

Стаж: 4 года 10 месяцев

Сообщений: 5

ОЗВУЧКА ГАВНОООО !!!!!!!!!!!!!!!!!!!!!!!!!!!!!!!!!!!!!!!!!!!!!!!!!!!!!!!!!!!!!!!!!!!!!!!!!

Создавать темы 20-Июн-2013 21:56

[Профиль]  [ЛС] 

тролль

Стаж: 4 года 2 месяца

Сообщений: 49

Симпатии: 2

swatik, раин дез тоже одноголоска и что?? значит реин дез тоже га*но?? не нравиться, то проходи миимо

Создавать темы 20-Июн-2013 22:07

[Профиль]  [ЛС] 

bullet

Стаж: 4 года 5 месяцев

Сообщений: 382

Симпатии: 37

ОЗВУЧКА ГАВНОООО !!!!!!!!!!!!!!!!!!!!!!!!!!!!!!!!!!!!!!!!!!!!!!!!!!!!!!!!!!!!!!!!!!!!!!!!!
Нее!!! если Rain.Death тогда это лучшая озвучка)) (ну после Ancorda)

Создавать темы 20-Июн-2013 22:53

[Профиль]  [ЛС] 

dreamcetcher ®

Стаж: 5 лет 8 месяцев

Сообщений: 53

Симпатии: 1

озвучка "Sintop" а не "Rain.Death"

Создавать темы 21-Июн-2013 07:58

[Профиль]  [ЛС] 

dilshod71

Стаж: 4 года 5 месяцев

Сообщений: 63

Симпатии: 3

ребят не гаречитесь в "Mover.uz"е есть все серии до 318. Каждую 2 недели выходит одна серия
.

Создавать темы 23-Июн-2013 23:00

[Профиль]  [ЛС] 

Rikudo Sanin

Стаж: 4 года 11 месяцев

Сообщений: 67

Симпатии: 4

народ ура скоро кончатся эти филеры!Наруто 321 серия 2 сезон Прибытие подкрепления! с 558-559 главы пойдет по манге
18 июля 2013

Создавать темы 24-Июн-2013 17:32

[Профиль]  [ЛС] 

Tas-ix.Yahoo

Стаж: 4 года 11 месяцев

Сообщений: 121

Симпатии: 6

mytube.uz

Создавать темы 28-Июн-2013 16:46

[Профиль]  [ЛС] 
Показать сообщения:    
Ответить на тему

Текущее время: 22-Авг 12:26

Часовой пояс: UTC + 5



Вы не можете начинать темы
Вы не можете отвечать на сообщения
Вы не можете редактировать свои сообщения
Вы не можете удалять свои сообщения
Вы не можете голосовать в опросах
Вы не можете прикреплять файлы к сообщениям
Вы не можете скачивать файлы