Орден / The Cloth (Джастин Прайс) [2012 г., фантастика, фэнтези, триллер, приключения, DVDRip]

Ответить на тему
 

Nosferatu ®

Стаж: 4 года 8 месяцев

Сообщений: 79

Симпатии: 5

Орден / The Cloth

Год выпуска: 2012
Страна: США
Жанр: фантастика, фэнтези, триллер, приключения
Продолжительность: 01:30:39
Перевод: Любительское (двухголосое)-Режиссер: Джастин Прайс-В ролях:
Дэнни Трехо, Эрик Робертс, Рэйчел Брук Смит, Джастин Прайс, Роберт Миано, Ласситер Холмс, Кайлер Виллетт, Камерон Уайт, Стивен Брэнд, Перла Родригез-Описание:
Со времен краха Римской Империи церковь продолжала распространять христианство. Вере в Христа всегда противостояли мощные силы, для борьбы с которыми была основана секретная организация «Экзорцистиато». В ее недрах много веков назад и был создан Тайный Орден, именуемый «Покров». Орден продолжает действовать и в наши дни. С помощью проверенных веками обрядов экзорцизма его адепты противостоят демонам, пытающимся забрать души грешников сквозь приоткрывающиеся время от времени Врата ада. Недавно потерявший отца молодой парень Джейсон неожиданно сталкивается с необходимостью получить помощь таинственного Ордена…
Качество: DVDRip
Формат: AVI
Видео кодек: XviD
Аудио кодек: AC3
Видео: 720x304 23.976fps 2 042 Kbps
Аудио: 48000Hz stereo 192kbps

MI

Format : AVI
Format/Info : Audio Video Interleave
File size : 1.42 GiB
Duration : 1h 30mn
Overall bit rate : 2 243 Kbps
Writing application : VirtualDubMod 1.5.10.3 | www.virtualdub-fr.org || (build 2550/release)
Writing library : VirtualDubMod build 2550/release
Video
ID : 0
Format : MPEG-4 Visual
Format profile : Advanced [email protected]
Format settings, BVOP : 1
Format settings, QPel : No
Format settings, GMC : No warppoints
Format settings, Matrix : Default (H.263)
Codec ID : XVID
Codec ID/Hint : XviD
Duration : 1h 30mn
Bit rate : 2 042 Kbps
Width : 720 pixels
Height : 304 pixels
Display aspect ratio : 2.35:1
Frame rate : 23.976 fps
Color space : YUV
Chroma subsampling : 4:2:0
Bit depth : 8 bits
Scan type : Progressive
Compression mode : Lossy
Bits/(Pixel*Frame) : 0.389
Stream size : 1.29 GiB (91%)
Writing library : XviD 1.2.1 (UTC 2008-12-04)
Audio
ID : 1
Format : AC-3
Format/Info : Audio Coding 3
Mode extension : CM (complete main)
Format settings, Endianness : Big
Codec ID : 2000
Duration : 1h 30mn
Bit rate mode : Constant
Bit rate : 192 Kbps
Channel(s) : 2 channels
Channel positions : Front: L R
Sampling rate : 48.0 KHz
Bit depth : 16 bits
Compression mode : Lossy
Stream size : 125 MiB (9%)
Alignment : Split accross interleaves
Interleave, duration : 42 ms (1.00 video frame)
Interleave, preload duration : 500 ms

Скриншоты














Последний раз редактировалось: Nosferatu (2013-06-21 07:35), всего редактировалось 3 раз(а)

Создавать темы 21-Июн-2013 02:58

[Профиль]  [ЛС] 

Топик был перенесен из форума Фильмы за 2013 (новинки) в форум Фильмы за 2012

ziyod

Создавать темы 21-Июн-2013 07:36

 

Олежка

Стаж: 5 лет

Сообщений: 21

Симпатии: 14

[img][/img][img]http://cs.uznet.net/hlstatsx/sig.php?player_id=1092939&background=random[/img]

Создавать темы 22-Июн-2013 00:09

[Профиль]  [ЛС] 

Tricks

Стаж: 5 лет

Сообщений: 602

Симпатии: 21

ого ну и телки там

Создавать темы 22-Июн-2013 00:16

[Профиль]  [ЛС] 

Senat

Стаж: 6 лет 9 месяцев

Сообщений: 251

фильм стоит смотреться или нет?

Создавать темы 22-Июн-2013 20:59

[Профиль]  [ЛС] 

Kinomen

Стаж: 5 лет

Сообщений: 38

Симпатии: 3

ДАЙТЕ ГАЗКУ ПОЖАЛУЙСТА

Создавать темы 23-Июн-2013 18:37

[Профиль]  [ЛС] 

mamant

Стаж: 4 года 5 месяцев

Сообщений: 72

Симпатии: 1

классная фото

Создавать темы 28-Июн-2013 19:25

[Профиль]  [ЛС] 

artur78-h

Стаж: 5 лет 7 месяцев

Сообщений: 114

фильм стоит смотреться или нет?
Не очень....

Создавать темы 28-Июн-2013 21:07

[Профиль]  [ЛС] 

Danzo.Lol

Стаж: 5 лет 4 месяца

Сообщений: 58

не очень фильм , даже плохо . плохая игра актеров , слабые спецеффекты . как будто асилум постарался .

Создавать темы 30-Июн-2013 05:46

[Профиль]  [ЛС] 

Senat

Стаж: 6 лет 9 месяцев

Сообщений: 251

не очень фильм , даже плохо . плохая игра актеров , слабые спецеффекты . как будто асилум постарался .
да ты прав сначала фильм показалось не плоха потом все будет похоже на ТВ3

Создавать темы 30-Июн-2013 07:30

[Профиль]  [ЛС] 

13werewolf13

Стаж: 5 лет 6 месяцев

Сообщений: 19

Симпатии: 1

Газу дайте, дамы и господа

Создавать темы 26-Сен-2013 21:26

[Профиль]  [ЛС] 
Показать сообщения:    
Ответить на тему

Текущее время: 18-Ноя 19:06

Часовой пояс: UTC + 5



Вы не можете начинать темы
Вы не можете отвечать на сообщения
Вы не можете редактировать свои сообщения
Вы не можете удалять свои сообщения
Вы не можете голосовать в опросах
Вы не можете прикреплять файлы к сообщениям
Вы не можете скачивать файлы