Сага: Тень Кабала / SAGA - Curse of the Shadow (Джон Лойд / John Lyde) [2013, США, фэнтези, боевик, HDRip] DVO

Страницы :  1, 2, 3  След.

Ответить на тему
 

Suxrob89 ®

Стаж: 7 лет 3 месяца

Сообщений: 933

Симпатии: 564

-Сага: Тень Кабала / SAGA - Curse of the Shadow- Страна: США
Жанр: фэнтези, боевик
Год выпуска: 2013
Продолжительность: 01:45:13
Перевод: Любительский (двухголосый закадровый)
Cубтитры: нет
Оригинальная аудиодорожка: нет-Режиссер: Джон Лойд / John Lyde-В ролях: Даниэль Чачран, Ричард МакУильямс, Пол Хант, Джеймс С. Моррис, Ив Мауро, Дэнни Джеймс, Клэр Нидерпрюэм, Морган Мэйби, Джеймс Гейсфорд, Кайл Пол-Описание: Война богов разорила землю, и оставшиеся в живых люди в отчаянии заключили соглашение с эльфами и гномами. Это положило конец войне, заставив орков и темных эльфов отступить в глубь пустоши. Однако данное соглашение, восстановив цивилизацию, возродило и древнее Зло. В темных углах таверн и в мрачных пещерах стал слышен шепот заговорщиков, известных как Тень…- -Качество видео: HDRip
Формат видео: AVI
Видео: Xvid , 720x400 , 16:9 , 23.976fps , 1588kbps
Аудио: Dolby AC3 , 48000Hz , 384kbps , 6ch

MediaInfo

General
Complete name : E:\Kino\Сага Тень Кабала(2013)_HDRip.avi
Format : AVI
Format/Info : Audio Video Interleave
File size : 1.46 GiB
Duration : 1h 45mn
Overall bit rate : 1 982 Kbps
Writing application : VirtualDubMod 1.5.10.2 (build 2540/release)
Writing library : VirtualDubMod build 2540/release
Video
ID : 0
Format : MPEG-4 Visual
Format profile : Advanced [email protected]
Format settings, BVOP : 2
Format settings, QPel : No
Format settings, GMC : No warppoints
Format settings, Matrix : Default (MPEG)
Codec ID : XVID
Codec ID/Hint : XviD
Duration : 1h 45mn
Bit rate : 1 589 Kbps
Width : 720 pixels
Height : 400 pixels
Display aspect ratio : 16:9
Frame rate : 23.976 fps
Color space : YUV
Chroma subsampling : 4:2:0
Bit depth : 8 bits
Scan type : Progressive
Compression mode : Lossy
Bits/(Pixel*Frame) : 0.230
Stream size : 1.17 GiB (80%)
Writing library : XviD 1.2.1 (UTC 2008-12-04)
Audio
ID : 1
Format : AC-3
Format/Info : Audio Coding 3
Mode extension : CM (complete main)
Format settings, Endianness : Big
Codec ID : 2000
Duration : 1h 45mn
Bit rate mode : Constant
Bit rate : 384 Kbps
Channel(s) : 6 channels
Channel positions : Front: L C R, Side: L R, LFE
Sampling rate : 48.0 KHz
Bit depth : 16 bits
Compression mode : Lossy
Stream size : 289 MiB (19%)
Alignment : Split accross interleaves
Interleave, duration : 42 ms (1.00 video frame)
Interleave, preload duration : 500 ms

Скриншот c названием фильма

Скриншоты

Создавать темы 22-Июн-2013 07:52

[Профиль]  [ЛС] 

farik9193

Стаж: 5 лет

Сообщений: 501

Симпатии: 47

pc :cd: Стёб под "Властелин Колец" :cc:

Создавать темы 22-Июн-2013 08:22

[Профиль]  [ЛС] 

Fuzuliy

Стаж: 5 лет 8 месяцев

Сообщений: 202

Симпатии: 12

Похожа на игру Lineage

Создавать темы 22-Июн-2013 09:41

[Профиль]  [ЛС] 

Taa6969

Стаж: 6 лет 4 месяца

Сообщений: 123

Симпатии: 2

Похожа на игру Lineage
ты это сказал посмотрев на скрины ?

Создавать темы 22-Июн-2013 19:25

[Профиль]  [ЛС] 

replekator

Стаж: 5 лет 6 месяцев

Сообщений: 13

дешевенький фильм ели досмотрел до конца пародия на властелин колец, короче полая туфта

Создавать темы 23-Июн-2013 13:20

[Профиль]  [ЛС] 

pct

Стаж: 6 лет 9 месяцев

Сообщений: 120

Симпатии: 12

Властелин колец растянутая, размытая хрень, полная пафоса и обсасывания ненужных действий. По крайней мере во время этого фильма я не уснул...

Создавать темы 23-Июн-2013 13:40

[Профиль]  [ЛС] 

erha

Стаж: 5 лет 1 месяц

Сообщений: 74

ха-ха-ха друзья! Это не фильм, это вообще туфта! Особенно перевод радует, там где пророк (она) ему говорит: не облажайся!
Да и сюжет ни к чёрту. Короче, если только вы очень любите Толкиена, тогда смотрите.

Создавать темы 24-Июн-2013 07:16

[Профиль]  [ЛС] 

Tricks

Стаж: 5 лет

Сообщений: 602

Симпатии: 21

Честно говоря фильм мне не понравился

Создавать темы 24-Июн-2013 17:40

[Профиль]  [ЛС] 

Максим

Стаж: 7 лет 3 месяца

Сообщений: 33

Симпатии: 3

фильм не интересный я посмотрел минут 10 и то отматывал вашем короче говоря фуфло не стоит смотреть =( !!!!!

Создавать темы 24-Июн-2013 19:27

[Профиль]  [ЛС] 

farik9193

Стаж: 5 лет

Сообщений: 501

Симпатии: 47

Властелин колец растянутая, размытая хрень, полная пафоса и обсасывания ненужных действий. По крайней мере во время этого фильма я не уснул...
Ты просто не успел tb

Создавать темы 25-Июн-2013 07:56

[Профиль]  [ЛС] 

oyka

Стаж: 4 года 5 месяцев

Сообщений: 24

Симпатии: 1

Помогу ч раздачей)))

Создавать темы 25-Июн-2013 12:33

[Профиль]  [ЛС] 

oyka

Стаж: 4 года 5 месяцев

Сообщений: 24

Симпатии: 1

с*

Создавать темы 25-Июн-2013 12:33

[Профиль]  [ЛС] 

Heroes

Стаж: 5 лет 8 месяцев

Сообщений: 148

Симпатии: 3

Судя по отзывам фильм не порадует , не стоит качать?

Создавать темы 25-Июн-2013 12:51

[Профиль]  [ЛС] 

sher1303

Стаж: 5 лет

Сообщений: 3

ФИЛЬМ ПОЛНИЙ БРЕД ДЕШОВАЯ ФИГНЯ

Создавать темы 26-Июн-2013 00:55

[Профиль]  [ЛС] 

Komiljon

Стаж: 7 лет 1 месяц

Сообщений: 12

Симпатии: 1

ФИЛЬМ ПОЛНИЙ БРЕД ДЕШОВАЯ ФИГНЯ
+5

Создавать темы 26-Июн-2013 06:29

[Профиль]  [ЛС] 
Показать сообщения:    
Ответить на тему

Текущее время: 19-Ноя 12:02

Часовой пояс: UTC + 5



Вы не можете начинать темы
Вы не можете отвечать на сообщения
Вы не можете редактировать свои сообщения
Вы не можете удалять свои сообщения
Вы не можете голосовать в опросах
Вы не можете прикреплять файлы к сообщениям
Вы не можете скачивать файлы