Давид и мадам Ансен / David et Madame Hansen (Александр Астье) [2012 г., Драма, HDRip] [MVO (НТВ+)]

Ответить на тему
 

Nosferatu ®

Стаж: 4 года 7 месяцев

Сообщений: 79

Симпатии: 5

Давид и мадам Ансен / David et Madame Hansen

Год выпуска: 2012
Страна: Франция
Жанр: Драма
Продолжительность: 01:29:12
Перевод: Профессиональный (многоголосый) [НТВ+]-Режиссер: Александр Астье-В ролях:
Александр Астье, Джули-Энн Рот, Изабель Аджани, Виктор Шамбон, Jean-Charles Simon, Дафна Бюрки, Pauline Moingeon, Элоди Хесме, Себастьен ЛаЛэйнн, Стефани Хейсер-Описание:
Давид, психиатр дорогой швейцарской клиники, соглашается подменить отсутствующего коллегу и сопровождать богатую пациентку в поездке по городу. Результаты поездки удивят обоих.-Качество: HDRip
Формат: AVI
Видео кодек: XviD
Аудио кодек: AC3
Видео: Xvid 720x304 24fps 1992 Kbps
Аудио: Dolby AC3 48000Hz stereo 192kbps

MI

Format : AVI
Format/Info : Audio Video Interleave
File size : 1.37 GiB
Duration : 1h 29mn
Overall bit rate : 2 193 Kbps
Writing application : VirtualDubMod 1.5.10.2 (build 2540/release)
Writing library : VirtualDubMod build 2540/release
Video
ID : 0
Format : MPEG-4 Visual
Format profile : Advanced [email protected]
Format settings, BVOP : 2
Format settings, QPel : No
Format settings, GMC : No warppoints
Format settings, Matrix : Default (MPEG)
Codec ID : XVID
Codec ID/Hint : XviD
Duration : 1h 29mn
Bit rate : 1 992 Kbps
Width : 720 pixels
Height : 304 pixels
Display aspect ratio : 2.35:1
Frame rate : 24.000 fps
Color space : YUV
Chroma subsampling : 4:2:0
Bit depth : 8 bits
Scan type : Progressive
Compression mode : Lossy
Bits/(Pixel*Frame) : 0.379
Stream size : 1.24 GiB (91%)
Writing library : XviD 1.2.1 (UTC 2008-12-04)
Audio
ID : 1
Format : AC-3
Format/Info : Audio Coding 3
Mode extension : CM (complete main)
Format settings, Endianness : Big
Codec ID : 2000
Duration : 1h 29mn
Bit rate mode : Constant
Bit rate : 192 Kbps
Channel(s) : 2 channels
Channel positions : Front: L R
Sampling rate : 48.0 KHz
Bit depth : 16 bits
Compression mode : Lossy
Stream size : 123 MiB (9%)
Alignment : Split accross interleaves
Interleave, duration : 42 ms (1.00 video frame)
Interleave, preload duration : 500 ms

Скриншоты















Последний раз редактировалось: Nosferatu (2013-06-22 18:57), всего редактировалось 3 раз(а)

Создавать темы 22-Июн-2013 18:27

[Профиль]  [ЛС] 

ОЛОЛОШ

Стаж: 5 лет 1 месяц

Сообщений: 141

Симпатии: 3

Скриншоты?
Перевод: Профессиональный (многоголосый, закадровый)
ViruseProject!

Создавать темы 22-Июн-2013 18:36

[Профиль]  [ЛС] 

Иви

Стаж: 5 лет 9 месяцев

Сообщений: 688

Симпатии: 65

шапку подправил
качество не DVDRip, а HDRip

Создавать темы 22-Июн-2013 18:58

[Профиль]  [ЛС] 

Иви

Стаж: 5 лет 9 месяцев

Сообщений: 688

Симпатии: 65

Перевод: Профессиональный (многоголосый, закадровый)
ViruseProject!
все верно, только он забыл добавить что озвучка от НТВ+

Создавать темы 22-Июн-2013 18:59

[Профиль]  [ЛС] 

Nosferatu ®

Стаж: 4 года 7 месяцев

Сообщений: 79

Симпатии: 5

Иви, ОЛОЛОШ, Всем спасибо! ))

Создавать темы 22-Июн-2013 19:02

[Профиль]  [ЛС] 
Показать сообщения:    
Ответить на тему

Текущее время: 22-Окт 13:13

Часовой пояс: UTC + 5



Вы не можете начинать темы
Вы не можете отвечать на сообщения
Вы не можете редактировать свои сообщения
Вы не можете удалять свои сообщения
Вы не можете голосовать в опросах
Вы не можете прикреплять файлы к сообщениям
Вы не можете скачивать файлы