Тристан и Изольда / Tristan and Isolde [Кевин Рейнолдс][2006][мелодрама,BDRip] MVO

Ответить на тему
 

farhod.ihz ®

Стаж: 6 лет 4 месяца

Сообщений: 56

Симпатии: 7

Тристан и Изольда
Год выпуска: 2006
Страна: Германия, США, Великобритания, Чехия
Жанр: боевик, драма, мелодрама
Продолжительность: 02:05:26
Перевод: Профессиональный (многолосый, закадровый)
Субтитры: присутствуют (русские)-Режиссёр: Кевин Рейнолдс
В ролях: Джеймс Франко, София Майлс, Руфус Сьюэлл, Дэвид О`Хара, Марк Стронг, Генри Кавилл, Брона Галлахер, Ронан Вайберт, Люси Расселл, Джейби Бланк-Описание: История любви британского воина Тристана и ирландской принцессы Изольды. Действие разворачивается вскоре после падения Римской империи. Осиротевший в детстве, Тристан был воспитан другом его семьи лордом Марком. Повзрослев, Тристан становится храбрым рыцарем, успешно сражающимся с армией ирландского короля. Едва не погибнув в одной из битв, Тристан случайно оказывается у ирландских берегов, где его находит, а затем и исцеляет дочь короля Изольда.
Между молодыми людьми, еще ничего не знающими друг о друге, вскоре зарождается настоящая любовь. Вернувшись домой, Тристан узнает, что ирландский король решил выдать свою дочь замуж за одного из британских лордов якобы для того, чтобы объединить эти государства. Будущим супругом Изольды должен стать победитель турнира. Защищая честь лорда Марка, Тристан побеждает в состязании. И только после этого он узнает, что его возлюбленная Изольда и есть та самая ирландская принцесса, которая теперь должна достаться его лучшему другу…-Качество: BDRip
Формат: MKV
Видео кодек: V_MPEG4/ISO/AVC
Аудио кодек: AAC
Видео: AVC, 1280x720, 23.976 fps, 4539 kbps
Аудио: AAC, 48.0 KHz, 6 channels, 16 bits, 384 Kbps-

media info

General
Unique ID : 215387214041988535333662500721389436816 (0xA20A118A466E2918B00B0454634F7F90)
Complete name : tristan-isolde.bdrip_.720p.x264\tristan-isolde.bdrip_.720p.x264.mkv
Format : Matroska
Format version : Version 1
File size : 4.32 GiB
Duration : 2h 5mn
Overall bit rate : 4 926 Kbps
Encoded date : UTC 2008-09-13 17:18:26
Writing application : mkvmerge v2.2.0 ('Turn It On Again') built on Mar 4 2008 12:58:26
Writing library : libebml v0.7.7 + libmatroska v0.8.1
Video
ID : 1
Format : AVC
Format/Info : Advanced Video Codec
Format profile : [email protected]
Format settings, CABAC : Yes
Format settings, ReFrames : 5 frames
Codec ID : V_MPEG4/ISO/AVC
Duration : 2h 5mn
Bit rate : 4 540 Kbps
Width : 1 280 pixels
Height : 720 pixels
Display aspect ratio : 16:9
Frame rate : 23.976 fps
Color space : YUV
Chroma subsampling : 4:2:0
Bit depth : 8 bits
Scan type : Progressive
Bits/(Pixel*Frame) : 0.205
Stream size : 3.89 GiB (90%)
Writing library : x264 core 58 svn-736M
Encoding settings : cabac=1 / ref=5 / deblock=1:0:0 / analyse=0x3:0x113 / me=umh / subme=6 / me-prepass=0 / brdo=1 / mixed_ref=1 / me_range=16 / chroma_me=1 / trellis=1 / 8x8dct=1 / cqm=0 / deadzone=21,11 / chroma_qp_offset=0 / threads=3 / nr=0 / decimate=0 / mbaff=0 / bframes=3 / b_pyramid=0 / b_adapt=1 / b_bias=0 / direct=3 / wpredb=1 / bime=1 / keyint=250 / keyint_min=25 / scenecut=40(pre) / rc=2pass / bitrate=4540 / ratetol=1.0 / rceq='blurCplx^(1-qComp)' / qcomp=1.00 / qpmin=10 / qpmax=51 / qpstep=4 / cplxblur=20.0 / qblur=0.5 / vbv_maxrate=24000 / vbv_bufsize=9000 / ip_ratio=1.10 / pb_ratio=1.10 / aq=1:0.5:13.0
Language : English
Default : Yes
Forced : No
Audio
ID : 2
Format : AC-3
Format/Info : Audio Coding 3
Mode extension : CM (complete main)
Codec ID : A_AC3
Duration : 2h 5mn
Bit rate mode : Constant
Bit rate : 384 Kbps
Channel(s) : 6 channels
Channel positions : Front: L C R, Side: L R, LFE
Sampling rate : 48.0 KHz
Bit depth : 16 bits
Compression mode : Lossy
Stream size : 345 MiB (8%)
Language : Russian
Default : Yes
Forced : No
Text
ID : 3
Format : UTF-8
Codec ID : S_TEXT/UTF8
Codec ID/Info : UTF-8 Plain Text
Language : Russian
Default : Yes
Forced : No

скриншоты



Последний раз редактировалось: farhod.ihz (2013-06-23 14:15), всего редактировалось 3 раз(а)

Создавать темы 23-Июн-2013 08:06

[Профиль]  [ЛС] 

SNation

Стаж: 4 года 5 месяцев

Сообщений: 81

Симпатии: 70

Классный фильм! Качаю(как только проверят)!

Создавать темы 23-Июн-2013 08:37

[Профиль]  [ЛС] 
Показать сообщения:    
Ответить на тему

Текущее время: 21-Сен 15:39

Часовой пояс: UTC + 5



Вы не можете начинать темы
Вы не можете отвечать на сообщения
Вы не можете редактировать свои сообщения
Вы не можете удалять свои сообщения
Вы не можете голосовать в опросах
Вы не можете прикреплять файлы к сообщениям
Вы не можете скачивать файлы