В плену у космоса / Stranded (Роджер Кристиан / Roger Christian) [2013, Канада, Ужасы, фантастика, HDRip] VO (den904)

Страницы :  1, 2  След.

Ответить на тему
 

Suxrob89 ®

Стаж: 7 лет 1 месяц

Сообщений: 933

Симпатии: 564

В плену у космоса / Stranded- Год выпуска: 2013
Выпущено: Канада / International Pictures Three
Жанр: ужасы, фантастика
Продолжительность: 01:27:44
Перевод: Одноголосый закадровый |den904| по переводу Janetta
Cубтитры: нет-Режиссер:
Роджер Кристиан / Roger Christian-В ролях:
Кристиан Слэйтер, Брендан Фер, Эми Матисио, Майкл Терриоль-Описание:
Сюжет расскажет про четырех астронавтов, которые оказались изолированы от мира на борту космического корабля и сталкиваются с мистическими явлениями, паранойей и страхом смерти после того, как корабль попадает в метеоритный шторм.-Качество: HDRip
Формат: AVI
Видео: 720x304 (2.37:1), 23.976 fps, XviD build 73 ~1918 kbps avg, 0.36 bit/pixel
Аудио: 48 kHz, AC3 Dolby Digital, 3/2 (L,C,R,l,r) + LFE ch, ~448.00 kbps avg-

Скриншоты

MediaInfo

General
Complete name                            : D:\V_plenu_u_kosmosa_2013_HDRip_by_Dalemake.avi
Format                                   : AVI
Format/Info                              : Audio Video Interleave
File size                                : 1.46 GiB
Duration                                 : 1h 27mn
Overall bit rate                         : 2 376 Kbps
Writing application                      : VirtualDubMod 1.5.10.3 | www.virtualdub-fr.org || (build 2550/release)
Writing library                          : VirtualDubMod build 2550/release
Video
ID                                       : 0
Format                                   : MPEG-4 Visual
Format profile                           : Advanced [email protected]
Format settings, BVOP                    : 1
Format settings, QPel                    : No
Format settings, GMC                     : No warppoints
Format settings, Matrix                  : Custom
Codec ID                                 : XVID
Codec ID/Hint                            : XviD
Duration                                 : 1h 27mn
Bit rate                                 : 1 919 Kbps
Width                                    : 720 pixels
Height                                   : 304 pixels
Display aspect ratio                     : 2.35:1
Frame rate                               : 23.976 fps
Color space                              : YUV
Chroma subsampling                       : 4:2:0
Bit depth                                : 8 bits
Scan type                                : Progressive
Compression mode                         : Lossy
Bits/(Pixel*Frame)                       : 0.366
Stream size                              : 1.18 GiB (81%)
Writing library                          : XviD 73
Audio
ID                                       : 1
Format                                   : AC-3
Format/Info                              : Audio Coding 3
Mode extension                           : CM (complete main)
Format settings, Endianness              : Big
Codec ID                                 : 2000
Duration                                 : 1h 27mn
Bit rate mode                            : Constant
Bit rate                                 : 448 Kbps
Channel(s)                               : 6 channels
Channel positions                        : Front: L C R, Side: L R, LFE
Sampling rate                            : 48.0 KHz
Bit depth                                : 16 bits
Compression mode                         : Lossy
Stream size                              : 281 MiB (19%)
Alignment                                : Split accross interleaves
Interleave, duration                     : 42 ms (1.00 video frame)
Interleave, preload duration             : 500 ms
-

Создавать темы 23-Июн-2013 08:18

[Профиль]  [ЛС] 

ArcheangeL

Стаж: 4 года 11 месяцев

Сообщений: 4

http://www.imdb.com/title/tt2268573/

Создавать темы 23-Июн-2013 12:55

[Профиль]  [ЛС] 

ALL TAIR

Стаж: 5 лет 7 месяцев

Сообщений: 141

Симпатии: 1

дайте газу плиссс я щя скачаю

Создавать темы 23-Июн-2013 12:56

[Профиль]  [ЛС] 

pct

Стаж: 6 лет 7 месяцев

Сообщений: 120

Симпатии: 12

У фильма классный слоган:"Заражай-прорастай-убивай!"

Создавать темы 23-Июн-2013 13:42

[Профиль]  [ЛС] 

Butty

Стаж: 5 лет

Сообщений: 96

Симпатии: 6

4 скрин вставляет нереально =)

Создавать темы 25-Июн-2013 15:40

[Профиль]  [ЛС] 

TimDream

Стаж: 6 лет 7 месяцев

Сообщений: 8

Зачем эти 4 скрина,что с них можно взять?!

Создавать темы 25-Июн-2013 17:27

[Профиль]  [ЛС] 

sharp_ssb

Стаж: 5 лет

Сообщений: 43

так, как фильмто? смахивает на тв3! кто посмотрел отпишитесь пож.

Создавать темы 25-Июн-2013 19:32

[Профиль]  [ЛС] 

regroom

Стаж: 4 года 4 месяца

Сообщений: 7

так, как фильмто? смахивает на тв3! кто посмотрел отпишитесь пож.
Ога, ТВ3. А чего ещё ждать от фильма в котором снимается Кристиан Слэйтер.

Создавать темы 25-Июн-2013 20:24

[Профиль]  [ЛС] 

ralex

Стаж: 5 лет 8 месяцев

Сообщений: 289

Симпатии: 28

Фильм полный отстой! Не тратьте свое время!

Создавать темы 27-Июн-2013 12:05

[Профиль]  [ЛС] 

erkin9009

Стаж: 5 лет 11 месяцев

Сообщений: 13

Фильм полный отстой! Не тратьте свое время!
не нравится не смотри.


Последний раз редактировалось: erkin9009 (2013-06-27 14:49), всего редактировалось 1 раз

Создавать темы 27-Июн-2013 13:22

[Профиль]  [ЛС] 

СтАсИкОс

Стаж: 6 лет 8 месяцев

Сообщений: 314

Симпатии: 20

erkin9009, Давайте без оскорблений

Создавать темы 27-Июн-2013 14:48

[Профиль]  [ЛС] 

Senat

Стаж: 6 лет 7 месяцев

Сообщений: 251

Фильм полный отстой! Не тратьте свое время!
я тоже согласен

Создавать темы 27-Июн-2013 18:05

[Профиль]  [ЛС] 

yura_greek

Стаж: 5 лет 7 месяцев

Сообщений: 59

Симпатии: 6

так, как фильмто? смахивает на тв3! кто посмотрел отпишитесь пож.
Ога, ТВ3. А чего ещё ждать от фильма в котором снимается Кристиан Слэйтер.
Не соглашусь, фильм Сломанная Стрела [Джон Траволта и Кристиан Слэйтер] - отличный фильм

Создавать темы 27-Июн-2013 18:30

[Профиль]  [ЛС] 

regroom

Стаж: 4 года 4 месяца

Сообщений: 7

Не соглашусь, фильм Сломанная Стрела [Джон Траволта и Кристиан Слэйтер] - отличный фильм
Что не помешало Слэйтеру скатиться в УГ.

Создавать темы 27-Июн-2013 22:10

[Профиль]  [ЛС] 

mnobel

Стаж: 5 лет 3 месяца

Сообщений: 1

фильм настолько дебильный что недосмотрел до конце, во время просмотра несколько раз вырвало )))

Создавать темы 11-Июл-2013 20:00

[Профиль]  [ЛС] 
Показать сообщения:    
Ответить на тему

Текущее время: 24-Сен 20:59

Часовой пояс: UTC + 5



Вы не можете начинать темы
Вы не можете отвечать на сообщения
Вы не можете редактировать свои сообщения
Вы не можете удалять свои сообщения
Вы не можете голосовать в опросах
Вы не можете прикреплять файлы к сообщениям
Вы не можете скачивать файлы