Простая история / The Straight Story (Дэвид Линч) [1999 г., Биографическая драма, DVDRip]

Ответить на тему
 

carrier ®

Стаж: 4 года 6 месяцев

Сообщений: 4

Простая История / The Straight Story Год выпуска: 1999
Страна: США
Жанр: Биографическая драма
Продолжительность: 01:47:00
Язык: английский
Режиссер: Дэвид Линч
В ролях: Ричард Фарнсуорт, Сисси Спэйсек, Гарри Дин Стэнтон, Эверет МакГилл, Джон Фарли, Кевин П. Фарли, Джейн Гэлловэй Хейтц, Джеймс Кэда, Дональд Вигерт, Трейси Мэлоуни
Описание: Дэвид Линч снял хороший фильм о хороших людях, чтобы разбудить лучшее в каждом, кто его посмотрит, выбрав при этом самую простую стилистику, прямую, как фамилия его героя (Стрэйт (Straight) переводится на русский язык как "прямой”, название картины можно также перевести как "История Стрэйта" ).
Элвин Стрейт, старик, бывший снайпер, прошедший Вторую мировую войну, живёт в Айове вместе с дочерью Розой, страдающей врождённой заторможенностью, которую несправедливо лишили материнских прав. Жена умерла в 1983 году, родив ему 14 детей.
Дожив до 73 лет и пережив инфаркт, Элвин Стрэйт узнает, что жить ему осталось немного, и отказывается от лечения. Перед смертью он хочет повидаться с братом Лайлом, также недавно перенесшим инфаркт. Они не виделись много лет из-за глупой ссоры. Подавив свою гордость и забыв о мелочности, пытаясь забыть о десятилетней вражде, Элвин хочет отправиться к нему. Однако он из-за плохого зрения не имеет водительских прав, а автобусы ненавидит, к тому же к месту проживания его брата автобусы не ходят. Поэтому он отправляется в путь на старой газонокосилке 1966 года, купленной перед поездкой. С возрастом Элвин стал мудрее.
Зритель, решивший посмотреть столь нетипичный фильм, думаю что не пожалеет о потраченном времени......
Качество: DVDRip
Формат: AVI File
Видео кодек: DivX
Аудио кодек: MP3
Видео: 640х272 , 25.000 fps, ~820 Kbps
Аудио: 48.0 KHz, 2 Ch, 107 Kbps

Дополнительная информация

В основу фильма лёг реальный эпизод из жизни Элвина Стрейта: 73-летний Элвин 5 июля 1994 года начал шестинедельное путешествие длиной в 240 миль (390 километров) из Лоренса, штат Айова, к горе Зион, штат Висконсин. Он отправлялся к своему 80-летнему брату, с которым случился инфаркт.
К путешествию он снарядил бензином, едой, одеждой и туристическим снаряжением 10-футовый прицеп и с ним отправился в путь на газонокосилке, со скоростью не более 5 миль в час (что приблизительно равно 8 километрам в час). В пути он перенёс дожди и несколько аварий. Это путешествие стало объектом публикаций в прессе, в частности, в газете «The New York Times». Самому Стрейту не нравилось быть объектом повышенного внимания, поэтому отказался от участия в телешоу «Late Show» Дэвида Леттермана и «Tonight» с Джеем Лено. В 1996 году, спустя два года после путешествия, Элвин скончался.
Ниже : фото настоящего Элвина Стрэйта

Скриншоты






Медиа Инфо

General
Complete name : J:\MOVIE BOX\MOVIES\FAVORITE MOVIES\The Straight Story 1999
DVDRip\The Straight Story 1999 DVDRip\The Straight Story.avi
Format : AVI
Format/Info : Audio Video Interleave
File size : 719 MiB
Duration : 1h 46mn
Overall bit rate mode : Variable
Overall bit rate : 939 Kbps
Writing application : Nandub v1.0rc2
Writing library : Nandub build 1853/release
Video
ID : 0
Format : MPEG-4 Visual
Codec ID : DIV3
Codec ID/Hint : DivX 3 Low
Duration : 1h 46mn
Bit rate : 819 Kbps
Width : 640 pixels
Height : 272 pixels
Display aspect ratio : 2.35:1
Frame rate : 25.000 fps
Color space : YUV
Chroma subsampling : 4:2:0
Bit depth : 8 bits
Compression mode : Lossy
Bits/(Pixel*Frame) : 0.188
Stream size : 627 MiB (87%)
Audio
ID : 1
Format : MPEG Audio
Format version : Version 1
Format profile : Layer 3
Mode : Joint stereo
Mode extension : MS Stereo
Codec ID : 55
Codec ID/Hint : MP3
Duration : 1h 46mn
Bit rate mode : Variable
Bit rate : 107 Kbps
Channel(s) : 2 channels
Sampling rate : 48.0 KHz
Compression mode : Lossy
Stream size : 82.0 MiB (11%)
Alignment : Aligned on interleaves
Interleave, duration : 24 ms (0.60 video frame)
Interleave, preload duration : 3861 ms


Последний раз редактировалось: carrier (2013-06-26 16:48), всего редактировалось 4 раз(а)

Создавать темы 26-Июн-2013 08:01

[Профиль]  [ЛС] 

Grock

Стаж: 6 лет 7 месяцев

Сообщений: 637

Симпатии: 113

Подправил описание и обновил постер. Перезалейте скриншоты, они должны быть
размером 640х272 как указано в видео данных.


Последний раз редактировалось: Grock (2013-06-27 00:36), всего редактировалось 1 раз

Создавать темы 26-Июн-2013 10:57

[Профиль]  [ЛС] 

D VS O

Стаж: 5 лет 8 месяцев

Сообщений: 19

Симпатии: 3

Grock, Постер должно быть 400x500 или 500х600

Создавать темы 26-Июн-2013 11:41

[Профиль]  [ЛС] 

Cutchelly

Стаж: 4 года 10 месяцев

Сообщений: 25

Симпатии: 1

аааавтоооор ты гдеее ???

Создавать темы 08-Июл-2013 16:37

[Профиль]  [ЛС] 

IiIaKaJI

Стаж: 4 года 8 месяцев

Сообщений: 4

Спасибо ребята! Скорости добавьте!

Создавать темы 27-Сен-2013 16:27

[Профиль]  [ЛС] 

[email protected]

Стаж: 6 лет 7 месяцев

Сообщений: 138

Симпатии: 10

Фильм шедевр!

Создавать темы 02-Окт-2013 15:48

[Профиль]  [ЛС] 
Показать сообщения:    
Ответить на тему

Текущее время: 19-Сен 23:59

Часовой пояс: UTC + 5



Вы не можете начинать темы
Вы не можете отвечать на сообщения
Вы не можете редактировать свои сообщения
Вы не можете удалять свои сообщения
Вы не можете голосовать в опросах
Вы не можете прикреплять файлы к сообщениям
Вы не можете скачивать файлы