Неудержимый / Bullet to the Head (Уолтер Хилл) [2013 г., боевик, триллер, криминал, BDRip-AVC] [Лицензия]

Ответить на тему
 

mp1988 ®

Стаж: 6 лет 10 месяцев

Сообщений: 607

Симпатии: 971

-Неудержимый / Bullet to the Head- Год выпуска: 2013
Страна: США, Dark Castle Entertainment / IM Global, After Dark Films
Жанр: боевик, триллер, криминал
Продолжительность: 01:31:33
Перевод: Дублированное [Лицензия]
Субтитры: английские-Режиссер: Уолтер Хилл-В ролях: Сильвестр Сталлоне, Санг Кенг, Сара Шахи, Адевале Акинойе-Агбаже, Кристиан Слэйтер, Джейсон Момоа, Холт МакКэллани, Брайан Ван Холт, Джон Седа, Вероника Розати-Описание: Киллер из Нового Орлеана объединяется с молодым полицейским из Нью-Йорка, расследуя дело, которое выводит их с мрачных задворок Нового Орлеана в светлые коридоры правительственных зданий в Вашингтоне. Необычный дуэт формируется в результате двух жестоких убийств. Герои убирают всех, кто стоит у них на пути, и готовы пожертвовать всем, чтобы отомстить.- -Качество: BDRip-AVC

Формат: MKV
Видео кодек V_MPEG4/ISO/AVC
Аудио кодек: AC-3
Видео: MPEG-4 AVC, 1914 Кбит/с, 1024x552, 23.976 кадр/c
Аудио 1: AC-3 / 6 каналов / 48 kHz / 448 Кбит/с / 16-bit - Дублированный
Аудио 2: AC-3 / 6 каналов / 48 kHz / 448 Кбит/с / 16-bit - оригинал

Скриншоты

Лог-х264

-[NoImage] x264 [info]: frame I:898 Avg QP:16.36 size: 61592
-[NoImage] x264 [info]: frame P:32063 Avg QP:19.87 size: 19651
-[NoImage] x264 [info]: frame B:98751 Avg QP:21.65 size: 6355
-[NoImage] x264 [info]: consecutive B-frames: 3.8% 4.7% 11.8% 17.1% 18.2% 35.9% 4.5% 0.9% 1.2% 1.2% 0.8%
-[NoImage] x264 [info]: mb I I16..4: 19.8% 67.6% 12.5%
-[NoImage] x264 [info]: mb P I16..4: 2.9% 10.7% 1.1% P16..4: 31.0% 32.3% 8.3% 0.8% 0.1% skip:12.8%
-[NoImage] x264 [info]: mb B I16..4: 0.2% 0.6% 0.1% B16..8: 38.2% 16.6% 2.2% direct: 3.4% skip:38.7% L0:44.5% L1:49.6% BI: 5.9%
-[NoImage] x264 [info]: 8x8 transform intra:71.4% inter:64.1%
-[NoImage] x264 [info]: direct mvs spatial:97.8% temporal:2.2%
-[NoImage] x264 [info]: coded y,uvDC,uvAC intra: 71.2% 65.7% 40.6% inter: 19.6% 13.6% 4.6%
-[NoImage] x264 [info]: i16 v,h,dc,p: 59% 10% 7% 24%
-[NoImage] x264 [info]: i8 v,h,dc,ddl,ddr,vr,hd,vl,hu: 8% 5% 10% 11% 15% 14% 13% 11% 12%
-[NoImage] x264 [info]: i4 v,h,dc,ddl,ddr,vr,hd,vl,hu: 12% 8% 12% 9% 14% 13% 12% 10% 12%
-[NoImage] x264 [info]: i8c dc,h,v,p: 37% 29% 18% 16%
-[NoImage] x264 [info]: Weighted P-Frames: Y:15.9% UV:9.3%
-[NoImage] x264 [info]: ref P L0: 47.2% 8.1% 20.0% 7.4% 5.9% 4.2% 3.9% 2.4% 0.8% 0.1%
-[NoImage] x264 [info]: ref B L0: 70.6% 14.2% 7.0% 3.7% 2.5% 1.4% 0.6%
-[NoImage] x264 [info]: ref B L1: 91.9% 8.1%
-[NoImage] x264 [info]: kb/s:1912.04

MediaInfo

Формат : Matroska
Версия формата : Version 2
Размер файла : 1,80 Гбайт
Продолжительность : 1 ч. 31 м.
Общий поток : 2810 Кбит/сек
Название фильма : Неудержимый (MediaClub-kaspr)
Дата кодирования : UTC 2013-06-25 17:52:30
Программа кодирования : mkvmerge v5.7.0 ('The Whirlwind') built on Aug 7 2012 14:11:40
Библиотека кодирования : libebml v1.2.3 + libmatroska v1.3.0
Видео
Идентификатор : 1
Формат : AVC
Формат/Информация : Advanced Video Codec
Профиль формата : [email protected]
Параметр CABAC формата : Да
Параметр ReFrames формата : 8 кадров
Идентификатор кодека : V_MPEG4/ISO/AVC
Продолжительность : 1 ч. 31 м.
Битрейт : 1914 Кбит/сек
Ширина : 1024 пикселя
Высота : 552 пикселя
Соотношение сторон : 1,85:1
Режим частоты кадров : Постоянный
Частота кадров : 23,976 кадра/сек
Цветовое пространство : YUV
Субдискретизация насыщенности : 4:2:0
Битовая глубина : 8 бит
Тип развёртки : Прогрессивная
Бит/(Пиксели*Кадры) : 0.141
Размер потока : 1,19 Гбайт (66%)
Заголовок : Неудержимый (MediaClub-kaspr)
Библиотека кодирования : x264 core 130 r2273 b3065e6
Настройки программы : cabac=1 / ref=8 / deblock=1:-3:-3 / analyse=0x3:0x133 / me=umh / subme=11 / psy=1 / psy_rd=1.00:0.10 / mixed_ref=1 / me_range=32 / chroma_me=1 / trellis=2 / 8x8dct=1 / cqm=0 / deadzone=21,11 / fast_pskip=0 / chroma_qp_offset=-3 / threads=12 / lookahead_threads=3 / sliced_threads=0 / nr=0 / decimate=0 / interlaced=0 / bluray_compat=0 / constrained_intra=0 / bframes=10 / b_pyramid=2 / b_adapt=2 / b_bias=0 / direct=3 / weightb=1 / open_gop=0 / weightp=2 / keyint=240 / keyint_min=22 / scenecut=40 / intra_refresh=0 / rc=2pass / mbtree=0 / bitrate=1914 / ratetol=1.0 / qcomp=0.60 / qpmin=0 / qpmax=69 / qpstep=4 / cplxblur=20.0 / qblur=0.5 / ip_ratio=1.40 / pb_ratio=1.30 / aq=1:1.00
Default : Да
Forced : Нет
Аудио #1
Идентификатор : 2
Формат : AC-3
Формат/Информация : Audio Coding 3
Расширение режима : CM (complete main)
Параметр Endianness формата : Big
Идентификатор кодека : A_AC3
Продолжительность : 1 ч. 31 м.
Вид битрейта : Постоянный
Битрейт : 448 Кбит/сек
Каналы : 6 каналов
Расположение каналов : Front: L C R, Side: L R, LFE
Частота : 48,0 КГц
Битовая глубина : 16 бит
Метод сжатия : С потерями
Размер потока : 293 Мбайт (16%)
Заголовок : Дубляж
Язык : Russian
Default : Да
Forced : Да
Аудио #2
Идентификатор : 3
Формат : AC-3
Формат/Информация : Audio Coding 3
Расширение режима : CM (complete main)
Параметр Endianness формата : Big
Идентификатор кодека : A_AC3
Продолжительность : 1 ч. 31 м.
Вид битрейта : Постоянный
Битрейт : 448 Кбит/сек
Каналы : 6 каналов
Расположение каналов : Front: L C R, Side: L R, LFE
Частота : 48,0 КГц
Битовая глубина : 16 бит
Метод сжатия : С потерями
Размер потока : 293 Мбайт (16%)
Заголовок : Оригинал
Язык : English
Default : Нет
Forced : Нет
Текст
Идентификатор : 4
Формат : UTF-8
Идентификатор кодека : S_TEXT/UTF8
Идентификатор кодека/Информация : UTF-8 Plain Text
Язык : English
Default : Нет
Forced : Нет
Меню
00:00:00.000 : en:Chapter 01
00:06:32.433 : en:Chapter 02
00:07:43.379 : en:Chapter 03
00:11:30.439 : en:Chapter 04
00:16:25.109 : en:Chapter 05
00:21:54.354 : en:Chapter 06
00:27:53.546 : en:Chapter 07
00:30:30.078 : en:Chapter 08
00:34:59.931 : en:Chapter 09
00:40:39.311 : en:Chapter 10
00:47:19.294 : en:Chapter 11
00:56:18.375 : en:Chapter 12
01:00:55.109 : en:Chapter 13
01:03:45.446 : en:Chapter 14
01:07:01.183 : en:Chapter 15
01:09:18.571 : en:Chapter 16
01:13:50.968 : en:Chapter 17
01:17:32.356 : en:Chapter 18
01:23:24.332 : en:Chapter 19
01:26:23.011 : en:Chapter 20

Создавать темы 27-Июн-2013 00:25

[Профиль]  [ЛС] 

Umid_ru89

Стаж: 5 лет 6 месяцев

Сообщений: 6

a kachestvo (BDRip-AVC) xorosho

Создавать темы 25-Июл-2013 15:08

[Профиль]  [ЛС] 
Показать сообщения:    
Ответить на тему

Текущее время: 17-Дек 01:45

Часовой пояс: UTC + 5



Вы не можете начинать темы
Вы не можете отвечать на сообщения
Вы не можете редактировать свои сообщения
Вы не можете удалять свои сообщения
Вы не можете голосовать в опросах
Вы не можете прикреплять файлы к сообщениям
Вы не можете скачивать файлы