Ариэтти из страны лилипутов / The Borrower Arrietty / Karigurashi no Arrietty [Movie] [Без хардсаба] [RUS(int), JAP, SUB] [2010 г., приключения, сказка, BDRip] [HWP]

Ответить на тему
 

pbyeh ®

Стаж: 5 лет 3 месяца

Сообщений: 33

Симпатии: 2

Ариэтти из страны лилипутов | The Borrower Arrietty | Karigurashi no Arrietty -Страна: Япония
Год выпуска: 2010
Жанр: приключения, сказка
Тип: полнометражный фильм
Продолжительность: 01:34:07-Режиссер: Ёнэбаяси Хиромаса
Студия: Studio Ghibli
-Описание: Их не видно невооруженным глазом. Но они - наши соседи! Маленькие, чуть больше пальца человечки, которые живут с нами под одной крышей. Лилипутики обустраивают "свои" домики, одалживая у людей вещи, пропажа которых будет незаметна. Ведь им нужно так мало! Существование мини-человечков - большой секрет! Но однажды юная малышка Ариэтти знакомится с мальчиком по имени Шо и приоткрывает завесу тайны! Их встреча станет началом большой дружбы!-Доп. информация: Подходит к воспроизведению на бытовых DVD-плеерах.-Качество: BDRip
Тип релиза: Без хардсаба
Формат видео: AVI
Видео: 720x384 (1.88:1), 23.976 fps, 0.32 bit/pixel, ~2115 kbps
Аудио 1: AC3, ~384 kbps, 48 kHz, 5.1ch [Русский, дублированный] - перевод студии "Велес", по заказу CP Digital
Аудио 2: AC3, ~384 kbps, 48 kHz, 5.1ch [Японский]
Субтитры: .srt, русские, внешние, перевод студии "Велес", по заказу CP Digital-

Скриншоты






MediaInfo

General
Complete name : D:\Ариэтти из страны лилипутов (Karigurashi no Arrietty) [BDRip, XviD, AC3] [Dub]\Ариэтти из страны лилипутов (Karigurashi no Arrietty) [BDRip, XviD, AC3] [Dub].avi
Format : AVI
Format/Info : Audio Video Interleave
File size : 1.91 GiB
Duration : 1h 34mn
Overall bit rate : 2 899 Kbps
Writing application : VirtualDubMod 1.5.10.2 (build 2540/release)
Writing library : VirtualDubMod build 2540/release
Video
ID : 0
Format : MPEG-4 Visual
Format profile : Advanced [email protected]
Format settings, BVOP : 2
Format settings, QPel : No
Format settings, GMC : No warppoints
Format settings, Matrix : Default (H.263)
Codec ID : XVID
Codec ID/Hint : XviD
Duration : 1h 34mn
Bit rate : 2 117 Kbps
Width : 720 pixels
Height : 384 pixels
Display aspect ratio : 1.85:1
Frame rate : 23.976 fps
Color space : YUV
Chroma subsampling : 4:2:0
Bit depth : 8 bits
Scan type : Progressive
Compression mode : Lossy
Bits/(Pixel*Frame) : 0.319
Stream size : 1.39 GiB (73%)
Writing library : XviD 1.2.1 (UTC 2008-12-04)
Audio #1
ID : 1
Format : AC-3
Format/Info : Audio Coding 3
Mode extension : CM (complete main)
Format settings, Endianness : Big
Codec ID : 2000
Duration : 1h 34mn
Bit rate mode : Constant
Bit rate : 384 Kbps
Channel(s) : 6 channels
Channel positions : Front: L C R, Side: L R, LFE
Sampling rate : 48.0 KHz
Bit depth : 16 bits
Compression mode : Lossy
Stream size : 259 MiB (13%)
Alignment : Split accross interleaves
Interleave, duration : 42 ms (1.00 video frame)
Interleave, preload duration : 500 ms
Audio #2
ID : 2
Format : AC-3
Format/Info : Audio Coding 3
Mode extension : CM (complete main)
Format settings, Endianness : Big
Codec ID : 2000
Duration : 1h 34mn
Bit rate mode : Constant
Bit rate : 384 Kbps
Channel(s) : 6 channels
Channel positions : Front: L C R, Side: L R, LFE
Sampling rate : 48.0 KHz
Bit depth : 16 bits
Compression mode : Lossy
Stream size : 259 MiB (13%)
Alignment : Split accross interleaves
Interleave, duration : 42 ms (1.00 video frame)
Interleave, preload duration : 500 ms
Приятного просмотра !!
-
МОИ РАЗДАЧИ
Могила светлячков
Рыбка Поньо на утесе
Шепот сердца
Порко Россо
Навсикая из долины ветров
Наши соседи - семья Ямада


Последний раз редактировалось: pbyeh (2013-11-08 19:49), всего редактировалось 3 раз(а)

Создавать темы 27-Июн-2013 17:46

[Профиль]  [ЛС] 

SNIL

Стаж: 5 лет 7 месяцев

Сообщений: 2624

Симпатии: 341

Русской озвучки отдельно не будет?

Создавать темы 27-Июн-2013 18:21

[Профиль]  [ЛС] 

pbyeh ®

Стаж: 5 лет 3 месяца

Сообщений: 33

Симпатии: 2

Русской озвучки отдельно не будет?
две звуковые дорожки в составе контейнера
Аудио 1: AC3, ~384 kbps, 48 kHz, 5.1ch [Русский, дублированный] - перевод студии "Велес", по заказу CP Digital
Аудио 2: AC3, ~384 kbps, 48 kHz, 5.1ch [Японский]

Создавать темы 27-Июн-2013 18:49

[Профиль]  [ЛС] 

SNIL

Стаж: 5 лет 7 месяцев

Сообщений: 2624

Симпатии: 341

pbyeh, ой не заметил! спс качнём!

Создавать темы 27-Июн-2013 19:27

[Профиль]  [ЛС] 

FRIEND

Стаж: 6 лет 6 месяцев

Сообщений: 120

Симпатии: 7

две звуковые дорожки в составе контейнера
Аудио 1: AC3, ~384 kbps, 48 kHz, 5.1ch [Русский, дублированный] - перевод студии "Велес", по заказу CP Digital
Аудио 2: AC3, ~384 kbps, 48 kHz, 5.1ch [Японский]
Субтитры: .srt, русские, внешние
Классно! Я люблю смотреть в оригиналной озвучке с сабами, но если озвучка профессиональная, делаю исключение.
Спасибоооооооооооооольшое!!!!!!!!!!!!!!!!!!!!!!!!!!!!!!!!!!!!!!!!!

Создавать темы 27-Июн-2013 19:28

[Профиль]  [ЛС] 

Katrina

Стаж: 4 года 1 месяц

Сообщений: 1

Спасибо Большое !!

Создавать темы 27-Июн-2013 21:45

[Профиль]  [ЛС] 

kumamoto

Стаж: 4 года 2 месяца

Сообщений: 7

どもありがとうございました!

Создавать темы 28-Июн-2013 02:42

[Профиль]  [ЛС] 

HuseyiN AnimE ArT

Стаж: 5 лет 1 месяц

Сообщений: 187

Симпатии: 1

Как то не похож аниме !

Создавать темы 28-Июн-2013 14:16

[Профиль]  [ЛС] 

SkypeWasd

Стаж: 3 года 8 месяцев

Сообщений: 29

kumamoto, согласен!

Создавать темы 15-Окт-2014 12:53

[Профиль]  [ЛС] 

ашим

Стаж: 4 года 7 месяцев

Сообщений: 2

Даёшь раздачу! Всего 10% осталось. 5 личей висит! Дайте скачать - раздам всем)

Создавать темы 10-Янв-2016 23:44

[Профиль]  [ЛС] 

vilya

Стаж: 1 год 5 месяцев

Сообщений: 3

Спасибо большое дали скачать хорошо)

Создавать темы 25-Июн-2016 10:22

[Профиль]  [ЛС] 
Показать сообщения:    
Ответить на тему

Текущее время: 18-Авг 14:00

Часовой пояс: UTC + 5



Вы не можете начинать темы
Вы не можете отвечать на сообщения
Вы не можете редактировать свои сообщения
Вы не можете удалять свои сообщения
Вы не можете голосовать в опросах
Вы не можете прикреплять файлы к сообщениям
Вы не можете скачивать файлы