Битва Экстрасенсов Все Сезоны 1-13 из (13) + Бонусы [2007 г., Реальное ТВ, SATRip]

Страницы :  1, 2, 3  След.

Ответить на тему
 

Pika4u ®

Стаж: 4 года 6 месяцев

Сообщений: 32

Симпатии: 7

Битва Экстрасенсов Все Сезоны 1-13 из (13) + Бонусы
Год выпуска: 2007-2012
Страна: Россия
Жанр: Реальное ТВ
Режиссер: Фёдор Торстенсен, Ольга Шмид
Продолжительность: ~ 00:40-55:00~
В Главных Ролях: Михаил Пореченков
Михаил Виноградов
Марат Башаров
Всеволод Кузнецов
Ольга Бузова
Леонид Коновалов
Андрей Сафронов
Илья Сафронов
Сергей Сафронов
Описание: «Битва экстрасенсов» на канале ТНТ доказывает: сверхъестественные способности существуют, а их обладатели могут спасти жизнь, найти пропавшего ребенка, рассказать о прошлом и будущем и просто вернуть потерянный телефон.
"Битва экстрасенсов» — это шоу, где его участники пытаются доказать, что люди со сверхспособностями существуют. Причём как нас уверяют, экстрасенс кроется в каждом человеке, надо просто уметь развивать эти способности.
Данный телепроект оказался не только основным наполнением сетки вещания телеканала «ТНТ», но и очень живучим. Перед глазами телезрителей уже пронеслись больше десятка сезонов. В проекте приняли участие большое количество людей, как со стороны экстрасенсов, так и со стороны тех, кому была необходима их помощь. У проекта появились поклонники, и ненавистники. В общем он стал довольно-таки разрекламированным брендом.
Качество: SATRip-IPTVRip
Формат: AVI
Видео кодек: XviD
Аудио кодек: MP3
Видео: Avi (Xvid) 700x404 1055kb/s до 1308kb/s 25.00fps (16:9)
Аудио: MP3 44100Hz stereo 128kbps

Доп Информация

Размер Качество и Битрейты Во всех Сезонах Одинаковы
Лично Проверял, Лично Переархивировал.

Скриншоты с Каждого Сезона по 1













Медиа Инфо

General
Complete name : X:\Сериалы Разные\Битва Экстрасенсов ( Паранормальное Шоу )\Битва Экстрасенсов\Bitva.ekstrasensov.1.sezon\7-vypusk~1.avi
Format : AVI
Format/Info : Audio Video Interleave
File size : 383 MiB
Duration : 46mn 0s
Overall bit rate : 1 164 Kbps
Writing application : MEncoder SVN-r33883(20110719-gcc4.5.2)
Writing library : MPlayer
Video
ID : 0
Format : MPEG-4 Visual
Format profile : Advanced [email protected]
Format settings, BVOP : 2
Format settings, QPel : No
Format settings, GMC : No warppoints
Format settings, Matrix : Default (H.263)
Codec ID : XVID
Codec ID/Hint : XviD
Duration : 46mn 0s
Bit rate : 1 024 Kbps
Width : 700 pixels
Height : 404 pixels
Display aspect ratio : 4:3
Original display aspect ratio : 16:9
Frame rate : 25.000 fps
Color space : YUV
Chroma subsampling : 4:2:0
Bit depth : 8 bits
Scan type : Progressive
Compression mode : Lossy
Bits/(Pixel*Frame) : 0.145
Stream size : 337 MiB (88%)
Writing library : XviD 1.2.1 (UTC 2008-12-04)
Audio
ID : 1
Format : MPEG Audio
Format version : Version 1
Format profile : Layer 3
Mode : Joint stereo
Mode extension : MS Stereo
Codec ID : 55
Codec ID/Hint : MP3
Duration : 46mn 0s
Bit rate mode : Constant
Bit rate : 128 Kbps
Channel(s) : 2 channels
Sampling rate : 44.1 KHz
Compression mode : Lossy
Delay relative to video : 40ms
Stream size : 42.1 MiB (11%)
Alignment : Aligned on interleaves
Interleave, duration : 26 ms (0.65 video frame)
Interleave, preload duration : 522 ms


Последний раз редактировалось: Pika4u (2013-06-27 23:36), всего редактировалось 1 раз

Создавать темы 27-Июн-2013 21:41

[Профиль]  [ЛС] 

Pika4u ®

Стаж: 4 года 6 месяцев

Сообщений: 32

Симпатии: 7

Кому Нужно Качайте Скорость Большая!-)

Создавать темы 27-Июн-2013 21:44

[Профиль]  [ЛС] 

Rauf_1

Стаж: 6 лет 5 месяцев

Сообщений: 18

Симпатии: 2

где найти другие сезоны

Создавать темы 27-Июн-2013 23:20

[Профиль]  [ЛС] 

СтАсИкОс

Стаж: 6 лет 10 месяцев

Сообщений: 314

Симпатии: 20

Rauf_1, Здесь как бы все 13 сезонов, поэтому и размер такой большой

Создавать темы 27-Июн-2013 23:21

[Профиль]  [ЛС] 

Pika4u ®

Стаж: 4 года 6 месяцев

Сообщений: 32

Симпатии: 7

да вроде все сезоны если 14 не идет по каналу

Создавать темы 28-Июн-2013 11:31

[Профиль]  [ЛС] 

СтАсИкОс

Стаж: 6 лет 10 месяцев

Сообщений: 314

Симпатии: 20

Pika4u, Самое главное не уходить с раздачи

Создавать темы 28-Июн-2013 15:17

[Профиль]  [ЛС] 

Pika4u ®

Стаж: 4 года 6 месяцев

Сообщений: 32

Симпатии: 7

у меня комп включен мин 12 часов в день так что с этим всё ок)

Создавать темы 28-Июн-2013 18:10

[Профиль]  [ЛС] 

Fahriddinxon

Стаж: 5 лет 10 месяцев

Сообщений: 162

Симпатии: 23

Хотя бы одному человеку дай скачать до конца

Создавать темы 23-Июл-2013 17:19

[Профиль]  [ЛС] 

Fahriddinxon

Стаж: 5 лет 10 месяцев

Сообщений: 162

Симпатии: 23

Кому Нужно Качайте Скорость Большая!-)
у меня комп включен мин 12 часов в день так что с этим всё ок)
Почему тогда уже месяц никто не скачаль полностю

Создавать темы 01-Авг-2013 12:47

[Профиль]  [ЛС] 

Pika4u ®

Стаж: 4 года 6 месяцев

Сообщений: 32

Симпатии: 7

Кому Нужно Качайте Скорость Большая!-)
у меня комп включен мин 12 часов в день так что с этим всё ок)
Почему тогда уже месяц никто не скачаль полностю
Потому что качают только неадекватные Люди, качают немного потом сваливают я раздаю по максимуму

Создавать темы 01-Авг-2013 21:16

[Профиль]  [ЛС] 

Renesmi

Стаж: 6 лет 11 месяцев

Сообщений: 19

Симпатии: 1

пожалуйста дайте скачать последний сезон! вообще не качается!

Создавать темы 06-Авг-2013 08:26

[Профиль]  [ЛС] 

Fahriddinxon

Стаж: 5 лет 10 месяцев

Сообщений: 162

Симпатии: 23

Не могу скачать уже боле месяца я удаляю не буду качать

Создавать темы 04-Сен-2013 08:08

[Профиль]  [ЛС] 

mr.Yamakasi

Стаж: 5 лет 9 месяцев

Сообщений: 9

место не хватало все сезоны грохнул, которые лично собирал + с спец выпусками + ведут расследование полностью было.
теперь нужно, и придётся скачивать всё с нуля, хорошо, то что одной пачкой тут, вот только скорости бы )))
отдача от меня ночью на максимуме будет, так что качаем! ну и конечно мне даём качать!
максимум это примерно свыше 20мб/с

Создавать темы 05-Окт-2013 03:04

[Профиль]  [ЛС] 

Deathhorde

Стаж: 5 лет 9 месяцев

Сообщений: 11

дайте скачать, мама не дает мне покоя

Создавать темы 02-Ноя-2013 23:35

[Профиль]  [ЛС] 

Pika4u ®

Стаж: 4 года 6 месяцев

Сообщений: 32

Симпатии: 7

Народ не сваливайте после скачки оставайтесь на раздачее!!!!!!!!!!!!!!!

Создавать темы 04-Ноя-2013 20:32

[Профиль]  [ЛС] 
Показать сообщения:    
Ответить на тему

Текущее время: 19-Ноя 17:33

Часовой пояс: UTC + 5



Вы не можете начинать темы
Вы не можете отвечать на сообщения
Вы не можете редактировать свои сообщения
Вы не можете удалять свои сообщения
Вы не можете голосовать в опросах
Вы не можете прикреплять файлы к сообщениям
Вы не можете скачивать файлы