Эдвард Руки-ножницы / Edward Scissorhands (Тим Бертон / Tim Burton) [1990, США, фэнтези, мелодрама, драма, трагикомедия, BDRip-AVC] MVO (ОРТ) + Sub Rus, Eng + Original Eng

Ответить на тему
 

Джамшид ®

Стаж: 7 лет 7 месяцев

Сообщений: 136

Симпатии: 14

Эдвард Руки-ножницы / Edward Scissorhands- Страна: США
Жанр: фэнтези, мелодрама, драма, трагикомедия
Год выпуска: 1990
Продолжительность: 1h 44mn 59s
Перевод: Профессиональный (многоголосый закадровый) ОРТ
Cубтитры: Rus, Eng SRT
Оригинальная аудиодорожка: английский
Режиссер: Тим Бёртон / Tim Burton
В ролях:
Джонни Депп / Johnny Depp
Вайнона Райдер / Winona Ryder
Дайэнн Уист, Энтони Майкл Холл, Кэти Бейкер, Роберт Оливери, Кончата Феррелл, Кэролайн Аарон, Дик Энтони Уильямс-ОписаниеОдинокий старый ученый создал человеческое существо. Но не успел доделать его до конца и умер. У сотворенного им молодого человека не хватает рук — вместо них у него нечто вроде ножниц — и он вынужден жить в заброшенном доме в полном одиночестве. Но вот однажды он знакомится с прекрасной девушкой, которая смогла оценить его доброе сердце…-
IMDb: 8.00 (229 934)
Сэмпл
Качество видео: BDRip-AVC
Формат видео: MKV
Видео: AVC 1360 Kbps 928 x 504 (1.841) 23.976 fps
Аудио: AC-3 384 Kbps 6 channels, 48.0 KHz MVO ОРТ
Аудио 2: AC-3 256 Kbps 4 channels, 48.0 KHz Eng
Формат субтитров: softsub (SRT)

Награды и номинации

MediaInfo

Format : Matroska
Format version : Version 4 / Version 2
File size : 1.47 GiB
Duration : 1h 44mn
Overall bit rate : 2 001 Kbps
Encoded date : UTC 2013-05-29 20:27:14
Writing application : mkvmerge v6.2.0 ('Promised Land') built on Apr 28 2013 12:22:01
Writing library : libebml v1.3.0 + libmatroska v1.4.0
Video
ID : 1
Format : AVC
Format/Info : Advanced Video Codec
Format profile : [email protected]
Format settings, CABAC : Yes
Format settings, ReFrames : 11 frames
Codec ID : V_MPEG4/ISO/AVC
Duration : 1h 44mn
Bit rate : 1 360 Kbps
Width : 928 pixels
Height : 504 pixels
Display aspect ratio : 1.85:1
Frame rate mode : Constant
Frame rate : 23.976 fps
Color space : YUV
Chroma subsampling : 4:2:0
Bit depth : 8 bits
Scan type : Progressive
Bits/(Pixel*Frame) : 0.121
Stream size : 992 MiB (66%)
Writing library : x264 core 133 r2334 a3ac64b
Encoding settings : cabac=1 / ref=11 / deblock=1:-2:-1 / analyse=0x3:0x133 / me=umh / subme=11 / psy=1 / psy_rd=1.00:0.05 / mixed_ref=1 / me_range=48 / chroma_me=1 / trellis=2 / 8x8dct=1 / cqm=0 / deadzone=21,11 / fast_pskip=0 / chroma_qp_offset=-3 / threads=12 / lookahead_threads=2 / sliced_threads=0 / nr=0 / decimate=1 / interlaced=0 / bluray_compat=0 / constrained_intra=0 / bframes=8 / b_pyramid=2 / b_adapt=2 / b_bias=0 / direct=3 / weightb=1 / open_gop=0 / weightp=2 / keyint=250 / keyint_min=23 / scenecut=40 / intra_refresh=0 / rc_lookahead=60 / rc=2pass / mbtree=1 / bitrate=1360 / ratetol=1.0 / qcomp=0.60 / qpmin=0 / qpmax=69 / qpstep=4 / cplxblur=20.0 / qblur=0.5 / ip_ratio=1.40 / aq=1:1.00
Language : English
Default : Yes
Forced : No
Audio #1
ID : 2
Format : AC-3
Format/Info : Audio Coding 3
Mode extension : CM (complete main)
Format settings, Endianness : Big
Codec ID : A_AC3
Duration : 1h 44mn
Bit rate mode : Constant
Bit rate : 384 Kbps
Channel(s) : 6 channels
Channel positions : Front: L C R, Side: L R, LFE
Sampling rate : 48.0 KHz
Bit depth : 16 bits
Compression mode : Lossy
Stream size : 288 MiB (19%)
Title : MVO (ORT)
Language : Russian
Default : Yes
Forced : No
Audio #2
ID : 3
Format : AC-3
Format/Info : Audio Coding 3
Mode extension : CM (complete main)
Format settings, Endianness : Big
Codec ID : A_AC3
Duration : 1h 44mn
Bit rate mode : Constant
Bit rate : 256 Kbps
Channel(s) : 4 channels
Channel positions : Front: L C R, Side: C
Sampling rate : 48.0 KHz
Bit depth : 16 bits
Compression mode : Lossy
Stream size : 192 MiB (13%)
Title : Eng (Original)
Language : English
Default : No
Forced : No
Text #1
ID : 4
Format : UTF-8
Codec ID : S_TEXT/UTF8
Codec ID/Info : UTF-8 Plain Text
Title : Rus
Language : Russian
Default : No
Forced : No
Text #2
ID : 5
Format : UTF-8
Codec ID : S_TEXT/UTF8
Codec ID/Info : UTF-8 Plain Text
Title : Eng
Language : English
Default : No
Forced : No

Скриншот c названием фильма

Скриншоты





Создавать темы 28-Июн-2013 07:47

[Профиль]  [ЛС] 

eugene1210

Стаж: 5 лет 10 месяцев

Сообщений: 16

Симпатии: 1

фильм на русском?

Создавать темы 21-Июл-2013 15:17

[Профиль]  [ЛС] 

пушистик

Стаж: 4 года 7 месяцев

Сообщений: 5

Джамшид, помогите скачать фильм

Создавать темы 21-Ноя-2013 20:02

[Профиль]  [ЛС] 

akmal2295

Стаж: 4 года 2 месяца

Сообщений: 6

Симпатии: 2

Дайте раздачу люди

Создавать темы 04-Янв-2014 11:51

[Профиль]  [ЛС] 

sangiarno

Стаж: 5 лет 1 месяц

Сообщений: 15

Симпатии: 1

помогите скачать)))

Создавать темы 15-Янв-2014 10:57

[Профиль]  [ЛС] 

Machine

Стаж: 5 лет 3 месяца

Сообщений: 209

Симпатии: 68

Сид вернись...........

Создавать темы 20-Июл-2014 13:41

[Профиль]  [ЛС] 

Dias

Стаж: 4 года 11 месяцев

Сообщений: 2

Отличный фильм!

Создавать темы 26-Июл-2014 10:11

[Профиль]  [ЛС] 
Показать сообщения:    
Ответить на тему

Текущее время: 11-Дек 12:17

Часовой пояс: UTC + 5



Вы не можете начинать темы
Вы не можете отвечать на сообщения
Вы не можете редактировать свои сообщения
Вы не можете удалять свои сообщения
Вы не можете голосовать в опросах
Вы не можете прикреплять файлы к сообщениям
Вы не можете скачивать файлы