Наруто 2 сезон 319 / Naruto Shippuuden 319 (Датэ хаятэ) [RUS][2013 г., Приключения, комедия, боевые искусства, сёнэн, HDTVRip-AVC]

Ответить на тему
 

dreamcetcher ®

Стаж: 5 лет 10 месяцев

Сообщений: 53

Симпатии: 1

Наруто 2 сезон 319 / Naruto Shippuuden 319
Год выпуска: 2013
Страна: Япония
Жанр: Приключения, комедия, боевые искусства, сёнэн
Продолжительность: 23:10
Перевод: Любительский (одноголосый)
Режиссер: Датэ хаятэ
В ролях: Накамура Тиэ / 中村千絵 — Сакура Харуно
Такэучи Дзюнко / 竹内順子 — Наруто Узумаки
Сугияма Нориаки / 杉山紀彰 — Саске Учиха
Исида Акира / 石田彰 — Гаара
Иноуэ Кадзухико / 井上和彦 — Какаши Хатаке
Кудзира / くじら — Орочимару
Канна Нобутоси / 神奈延年 — Кабуто Якуси
Кацуки Масако / 勝生真沙子 — Цунадэ
Масукава Ёити / 増川洋一 — Рок Ли
Мидзуки Нана / 水樹奈々 — Хината Хьюга
Морикубо Сётаро / 森久保祥太郎 — Шикамару Нара
Оцука Хотю / 大塚芳忠 — Джирайя
Сибата Хидэкацу / 柴田秀勝 — Третий Хокаге
Исикава Хидэо / 石川英郎 — Итачи Учиха
Тотика Койти / 遠近孝一 — Нейджи Хьюга
Описание: Эпизод "Душа, живущая в марионетке"
Война продолжается. Отряд самураев сталкивается с бабулей Чиё и Кимимару, которые находятся под действием эдо-тенсей. Канкуро решает сражаться с Чие, ведь он единственный кукловод. Видя куклу Сасори, бабуля начинает вспоминать былые времена и сожалеет о прошлых ошибках. Сасори начал изготавливать кукол. К нему пришел друг Камоши, но он не обращал на него внимание. Сасори с детства не любил заставлять людей ждать. Бабуля изготовила яд для специальной куклы Сасори - Курасу. Во время одной из миссий, Камоши потерял руку и Сасори пришил ему руку марионетки, что идеально ему подошла. Бабуля Чиё в...
Качество: HDTVRip-AVC
Формат: MKV
Видео кодек: Другой MPEG4
Аудио кодек: MPEG Audio
Видео: AVC,1280x720,1776Kbs,23.976fps
Аудио: MPEG Audio,256Kbps,44.1KHz,2ch

MediaInfo

General
Unique ID : 198129595669075170075453615681663444625 (0x950E5F430C9D4C5BA03483BC35A4A691)
Complete name : F:\Temp\[Naruto-Grand.Ru] Naruto Shippuuden 319 [RUS DUB] [720p].mkv
Format : Matroska
Format version : Version 4 / Version 2
File size : 325 MiB
Duration : 23mn 9s
Overall bit rate : 1 962 Kbps
Encoded date : UTC 2013-06-27 12:32:14
Writing application : mkvmerge v6.0.0 ('Coming Up For Air') built on Jan 20 2013 09:52:00
Writing library : libebml v1.3.0 + libmatroska v1.4.0
Attachment : Yes
Video
ID : 1
Format : AVC
Format/Info : Advanced Video Codec
Format profile : [email protected]
Format settings, CABAC : Yes
Format settings, ReFrames : 6 frames
Codec ID : V_MPEG4/ISO/AVC
Duration : 23mn 9s
Bit rate : 1 776 Kbps
Width : 1 280 pixels
Height : 720 pixels
Display aspect ratio : 16:9
Frame rate mode : Constant
Frame rate : 23.976 fps
Color space : YUV
Chroma subsampling : 4:2:0
Bit depth : 8 bits
Scan type : Progressive
Bits/(Pixel*Frame) : 0.080
Stream size : 287 MiB (88%)
Writing library : x264 core 120 r2120 0c7dab9
Encoding settings : cabac=1 / ref=6 / deblock=1:1:1 / analyse=0x3:0x113 / me=umh / subme=8 / psy=1 / psy_rd=0.40:0.00 / mixed_ref=1 / me_range=16 / chroma_me=1 / trellis=1 / 8x8dct=1 / cqm=0 / deadzone=21,11 / fast_pskip=1 / chroma_qp_offset=-2 / threads=4 / sliced_threads=0 / nr=0 / decimate=1 / interlaced=0 / bluray_compat=0 / constrained_intra=0 / bframes=3 / b_pyramid=2 / b_adapt=2 / b_bias=0 / direct=3 / weightb=1 / open_gop=0 / weightp=2 / keyint=250 / keyint_min=23 / scenecut=40 / intra_refresh=0 / rc_lookahead=50 / rc=2pass / mbtree=1 / bitrate=1776 / ratetol=1.0 / qcomp=0.60 / qpmin=0 / qpmax=69 / qpstep=4 / cplxblur=20.0 / qblur=0.5 / vbv_maxrate=3552 / vbv_bufsize=8880 / nal_hrd=none / ip_ratio=1.40 / aq=1:0.60
Default : Yes
Forced : Yes
Audio
ID : 2
Format : AC-3
Format/Info : Audio Coding 3
Mode extension : CM (complete main)
Format settings, Endianness : Big
Codec ID : A_AC3
Duration : 23mn 9s
Bit rate mode : Constant
Bit rate : 192 Kbps
Channel(s) : 2 channels
Channel positions : Front: L R
Sampling rate : 48.0 KHz
Bit depth : 16 bits
Compression mode : Lossy
Stream size : 31.8 MiB (10%)
Default : Yes
Forced : No

Скриншоты






Последний раз редактировалось: dreamcetcher (2013-06-29 20:20), всего редактировалось 1 раз

Создавать темы 28-Июн-2013 09:04

[Профиль]  [ЛС] 

Aybek

Стаж: 5 лет 10 месяцев

Сообщений: 15

С раздачи не уходим ребята!

Создавать темы 28-Июн-2013 21:14

[Профиль]  [ЛС] 

albert.khegay

Стаж: 4 года 5 месяцев

Сообщений: 5

вот лично я никогда не выхожу

Создавать темы 29-Июн-2013 00:14

[Профиль]  [ЛС] 

msaidova

Стаж: 5 лет 4 месяца

Сообщений: 33

Как Песня называется??

Создавать темы 29-Июн-2013 15:05

[Профиль]  [ЛС] 
Показать сообщения:    
Ответить на тему

Текущее время: 22-Окт 09:46

Часовой пояс: UTC + 5



Вы не можете начинать темы
Вы не можете отвечать на сообщения
Вы не можете редактировать свои сообщения
Вы не можете удалять свои сообщения
Вы не можете голосовать в опросах
Вы не можете прикреплять файлы к сообщениям
Вы не можете скачивать файлы